Featured TV Shows


Game of Thrones S08E06 - Final

Posted By: Tavaz
1080p (FullHD) / WEBRip IMDb
Game of Thrones S08E06 - Final

Game of Thrones S08E06 - Final
WEBRip | MKV | 1920x1080 | English | H264 @ 7233 kbps | E-AC-3 @ 640 kbps | 1 h 19 min | 4.37 GiB
Subtitles: English
Genre: Drama


Seven noble families fight for control of the mythical land of Westeros. Friction between the houses leads to full-scale war. All while a very ancient evil awakens in the farthest north. Amidst the war, a neglected military order of misfits, the Night's Watch, is all that stands between the realms of men and icy horrors beyond.

8d72814552c34b368a74e952229c31f7.mkv (4.4 GB)



General
Unique ID : 289097499523728575388648497800904087973 (0xD97E2732BE226DF2B42CB4ADB17299A5)
Complete name : ./8d72814552c34b368a74e952229c31f7.mkv
Format : Matroska
Format version : Version 4 / Version 2
File size : 4.37 GiB
Duration : 1 h 19 min
Overall bit rate : 7 876 kb/s
Encoded date : UTC 2019-05-20 00:59:50
Writing application : mkvmerge v33.1.0 ('Primrose') 64-bit
Writing library : libebml v1.3.7 + libmatroska v1.5.0

Video
ID : 1
Format : AVC
Format/Info : Advanced Video Codec
Format profile : High@L4
Format settings : CABAC / 4 Ref Frames
Format settings, CABAC : Yes
Format settings, RefFrames : 4 frames
Codec ID : V_MPEG4/ISO/AVC
Duration : 1 h 19 min
Bit rate mode : Constant
Bit rate : 7 234 kb/s
Nominal bit rate : 10 000 kb/s
Width : 1 920 pixels
Height : 1 080 pixels
Display aspect ratio : 16:9
Frame rate mode : Constant
Frame rate : 23.976 (24000/1001) FPS
Color space : YUV
Chroma subsampling : 4:2:0
Bit depth : 8 bits
Scan type : Progressive
Bits/(Pixel*Frame) : 0.146
Stream size : 4.01 GiB (92%)
Language : English
Default : Yes
Forced : No
Color range : Limited
Color primaries : BT.709
Transfer characteristics : BT.709
Matrix coefficients : BT.709

Audio
ID : 2
Format : E-AC-3
Format/Info : Enhanced Audio Coding 3
Format settings, Endianness : Big
Codec ID : A_EAC3
Duration : 1 h 19 min
Bit rate mode : Constant
Bit rate : 640 kb/s
Channel(s) : 6 channels
Channel positions : Front: L C R, Side: L R, LFE
Sampling rate : 48.0 kHz
Frame rate : 187.500 FPS (256 SPF)
Compression mode : Lossy
Delay relative to video : 30 ms
Stream size : 364 MiB (8%)
Language : English
Service kind : Complete Main
Default : Yes
Forced : No

Text
ID : 3
Format : UTF-8
Codec ID : S_TEXT/UTF8
Codec ID/Info : UTF-8 Plain Text
Duration : 1 h 17 min
Bit rate : 29 b/s
Count of elements : 629
Stream size : 16.7 KiB (0%)
Language : English
Default : No
Forced : No





Game of Thrones S08E06 - Final


Game of Thrones S08E06 - Final


Game of Thrones S08E06 - Final


Game of Thrones S08E06 - Final


Game of Thrones S08E06 - Final

All episodes