Featured TV Shows


Game of Thrones S08E06

Posted By: Tavaz
720p (HD) / WEB-DL IMDb
Game of Thrones S08E06

Game of Thrones S08E06
WEB-DL | MKV | 1280x720 | English | H264 @ 2849 kbps | E-AC-3 @ 640 kbps | 1 h 19 min | 1.94 GiB
Subtitles: English
Genre: Drama


Seven noble families fight for control of the mythical land of Westeros. Friction between the houses leads to full-scale war. All while a very ancient evil awakens in the farthest north. Amidst the war, a neglected military order of misfits, the Night's Watch, is all that stands between the realms of men and icy horrors beyond.

bf207f408daf4295a8545919e748ac60.mkv (1.9 GB)



General
Unique ID : 326809014857913086209537409144410913605 (0xF5DD2074B92411BE22EB3712CB0CBB45)
Complete name : ./bf207f408daf4295a8545919e748ac60.mkv
Format : Matroska
Format version : Version 4 / Version 2
File size : 1.94 GiB
Duration : 1 h 19 min
Overall bit rate : 3 492 kb/s
Encoded date : UTC 2019-05-20 01:02:53
Writing application : mkvmerge v33.1.0 ('Primrose') 64-bit
Writing library : libebml v1.3.7 + libmatroska v1.5.0

Video
ID : 1
Format : AVC
Format/Info : Advanced Video Codec
Format profile : High@L3.1
Format settings : CABAC / 4 Ref Frames
Format settings, CABAC : Yes
Format settings, RefFrames : 4 frames
Codec ID : V_MPEG4/ISO/AVC
Duration : 1 h 19 min
Bit rate mode : Constant
Bit rate : 2 850 kb/s
Nominal bit rate : 6 000 kb/s
Width : 1 280 pixels
Height : 720 pixels
Display aspect ratio : 16:9
Frame rate mode : Constant
Frame rate : 23.976 (24000/1001) FPS
Color space : YUV
Chroma subsampling : 4:2:0
Bit depth : 8 bits
Scan type : Progressive
Bits/(Pixel*Frame) : 0.129
Stream size : 1.58 GiB (82%)
Default : Yes
Forced : No
Color range : Limited
Color primaries : BT.709
Transfer characteristics : BT.709
Matrix coefficients : BT.709

Audio
ID : 2
Format : E-AC-3
Format/Info : Enhanced Audio Coding 3
Format settings, Endianness : Big
Codec ID : A_EAC3
Duration : 1 h 19 min
Bit rate mode : Constant
Bit rate : 640 kb/s
Channel(s) : 6 channels
Channel positions : Front: L C R, Side: L R, LFE
Sampling rate : 48.0 kHz
Frame rate : 187.500 FPS (256 SPF)
Compression mode : Lossy
Delay relative to video : 2 ms
Stream size : 364 MiB (18%)
Language : English
Service kind : Complete Main
Default : Yes
Forced : No

Text #1
ID : 3
Format : UTF-8
Codec ID : S_TEXT/UTF8
Codec ID/Info : UTF-8 Plain Text
Duration : 1 h 15 min
Bit rate : 27 b/s
Count of elements : 517
Stream size : 15.1 KiB (0%)
Language : English
Default : No
Forced : No

Text #2
ID : 4
Format : UTF-8
Codec ID : S_TEXT/UTF8
Codec ID/Info : UTF-8 Plain Text
Duration : 1 h 17 min
Bit rate : 29 b/s
Count of elements : 629
Stream size : 16.7 KiB (0%)
Title : SDH
Language : English
Default : No
Forced : No

Menu
00:00:00.000 : en:Ratings
00:00:03.858 : en:Previously On
00:00:57.858 : en:Opening Credits
00:02:56.858 : en:What remains of King's Landing
00:05:52.858 : en:Following the queen's orders
00:07:28.858 : en:The last of House Lannister
00:11:53.858 : en:Breaking the wheel
00:21:13.858 : en:Love is the death of duty
00:30:18.858 : en:Building a new world together
00:42:44.858 : en:Determining what's best for the kingdom
00:56:16.858 : en:Everyone is where they're supposed to be
01:03:42.858 : en:Honoring a legacy
01:05:45.858 : en:A song of ice and fire
01:11:15.858 : en:And now my watch begins
01:12:30.858 : en:The last of house Stark
01:18:08.858 : en:End Credits





Game of Thrones S08E06


Game of Thrones S08E06


Game of Thrones S08E06


Game of Thrones S08E06


Game of Thrones S08E06

All episodes