Gotham S04E12

Posted By: Tavaz
SD / WEB-DL IMDb
Gotham S04E12

Gotham S04E12
WEB-DL | MKV | 720x404 | Italian | H264 @ 917 kbps | AAC @ 111 kbps | 42 min 11 s | 311 MiB
Genre: Crime, Dramma, Fantasy, Thriller

I detective del Dipartimento della Polizia di Gotham City, guidati dal capitano Sarah Essen, il giovane James Gordon e il suo nuovo partner Harvey Bullock, vengono ingaggiati per risolvere uno degli omicidi più sconvolgenti e di alto profilo a cui Gotham abbia mai assistito: l'assassinio di Thomas e Martha Wayne. Durante la sua indagine, Gordon incontrerà il figlio dei Wayne, Bruce, ora sotto la tutela del maggiordomo Alfred Pennyworth, che darà informazioni utili a Gordon per trovare il killer. Lungo il suo cammino da detective, Gordon dovrà confrontarsi con diversi boss della mafia e delle gang (uno dei quali è Fish Mooney), e con quelli che saranno i futuri villains dell'universo di Batman, tra i quali Selina Kyle (la futura Catwoman), Oswald Cobblepot (colui che diventerà il Pinguino) e coloro che diverranno l'Enigmista e Poison Ivy.

Gotham.4x12.Specchio.In.Frantumi.ITA.WEBMux.x264-NovaRip.mkv (311.2 MB)



General
Unique ID : 171805981667421932110500002956297199020 (0x8140A0E3875C511C28AADDDE0D355DAC)
Complete name : ./Gotham.4x12.Specchio.In.Frantumi.ITA.WEBMux.x264-NovaRip.mkv
Format : Matroska
Format version : Version 2
File size : 311 MiB
Duration : 42 min 11 s
Overall bit rate : 1 031 kb/s
Encoded date : UTC 2018-04-28 09:27:55
Writing application : mkvmerge v8.5.2 ('Crosses') 64bit
Writing library : libebml v1.3.3 + libmatroska v1.4.4

Video
ID : 1
Format : AVC
Format/Info : Advanced Video Codec
Format profile : High@L3.1
Format settings : CABAC / 6 Ref Frames
Format settings, CABAC : Yes
Format settings, RefFrames : 6 frames
Codec ID : V_MPEG4/ISO/AVC
Duration : 42 min 11 s
Bit rate : 917 kb/s
Width : 720 pixels
Height : 404 pixels
Display aspect ratio : 16:9
Frame rate mode : Constant
Frame rate : 25.000 FPS
Original frame rate : 23.976 (24000/1001) FPS
Color space : YUV
Chroma subsampling : 4:2:0
Bit depth : 8 bits
Scan type : Progressive
Bits/(Pixel*Frame) : 0.126
Stream size : 277 MiB (89%)
Writing library : x264 core 155 r2893 b00bcaf
Encoding settings : cabac=1 / ref=6 / deblock=1:-2:-2 / analyse=0x3:0x133 / me=umh / subme=7 / psy=1 / psy_rd=1.00:0.00 / mixed_ref=1 / me_range=16 / chroma_me=1 / trellis=2 / 8x8dct=1 / cqm=0 / deadzone=21,11 / fast_pskip=0 / chroma_qp_offset=-2 / threads=6 / lookahead_threads=1 / sliced_threads=0 / nr=0 / decimate=1 / interlaced=0 / bluray_compat=0 / constrained_intra=0 / bframes=5 / b_pyramid=2 / b_adapt=2 / b_bias=0 / direct=3 / weightb=1 / open_gop=0 / weightp=2 / keyint=250 / keyint_min=23 / scenecut=40 / intra_refresh=0 / rc_lookahead=40 / rc=crf / mbtree=1 / crf=18.0 / qcomp=0.60 / qpmin=0 / qpmax=69 / qpstep=4 / ip_ratio=1.40 / aq=1:1.00
Language : English
Default : Yes
Forced : Yes

Audio
ID : 2
Format : AAC
Format/Info : Advanced Audio Codec
Format profile : LC
Codec ID : A_AAC-2
Duration : 42 min 11 s
Bit rate : 112 kb/s
Channel(s) : 2 channels
Channel positions : Front: L R
Sampling rate : 48.0 kHz
Frame rate : 46.875 FPS (1024 SPF)
Compression mode : Lossy
Delay relative to video : 9 ms
Stream size : 33.8 MiB (11%)
Title : ITA
Language : Italian
Default : Yes
Forced : Yes





Gotham S04E12


Gotham S04E12


Gotham S04E12


Gotham S04E12


Gotham S04E12

All episodes