Featured TV Shows


HAPPY! S02E09

Posted By: Tavaz
720p (HD) / WEBRip IMDb
HAPPY! S02E09

HAPPY! S02E09
WEBRip | MKV | 1280x720 | English | H264 @ 2560 kbps | AAC @ 96 kbps | 48 min 10 s | 912 MiB
Subtitles: English


Corrupt ex-cop turned hitman Nick Sax's life is changed forever by a relentlessly positive, imaginary blue winged horse named Happy.

bd8dbed87c454396924e51a3ea9dfe4f.mkv (912.3 MB)



General
Unique ID : 288500795314927232059067498783448137383 (0xD90B3B68C92D2A2205EC57ADD63E7EA7)
Complete name : ./bd8dbed87c454396924e51a3ea9dfe4f.mkv
Format : Matroska
Format version : Version 4 / Version 2
File size : 912 MiB
Duration : 48 min 10 s
Overall bit rate : 2 648 kb/s
Encoded date : UTC 2019-05-23 02:59:58
Writing application : mkvmerge v29.0.0 ('Like It Or Not') 64-bit
Writing library : libebml v1.3.6 + libmatroska v1.4.9

Video
ID : 1
Format : AVC
Format/Info : Advanced Video Codec
Format profile : Main@L3.1
Format settings : CABAC / 1 Ref Frames
Format settings, CABAC : Yes
Format settings, RefFrames : 1 frame
Format settings, GOP : M=1, N=48
Codec ID : V_MPEG4/ISO/AVC
Duration : 48 min 9 s
Bit rate : 2 560 kb/s
Width : 1 280 pixels
Height : 720 pixels
Display aspect ratio : 16:9
Frame rate mode : Constant
Frame rate : 23.976 (24000/1001) FPS
Color space : YUV
Chroma subsampling : 4:2:0
Bit depth : 8 bits
Scan type : Progressive
Bits/(Pixel*Frame) : 0.116
Stream size : 878 MiB (96%)
Writing library : x264 core 152
Encoding settings : cabac=1 / ref=1 / deblock=1:0:0 / analyse=0x1:0x111 / me=hex / subme=6 / psy=1 / psy_rd=1.00:0.00 / mixed_ref=0 / me_range=16 / chroma_me=0 / trellis=1 / 8x8dct=0 / cqm=0 / deadzone=21,11 / fast_pskip=1 / chroma_qp_offset=-2 / threads=8 / lookahead_threads=1 / sliced_threads=0 / nr=0 / decimate=1 / interlaced=0 / bluray_compat=0 / constrained_intra=0 / bframes=0 / weightp=2 / keyint=48 / keyint_min=25 / scenecut=0 / intra_refresh=0 / rc=abr / mbtree=0 / bitrate=2560 / ratetol=1.0 / qcomp=0.60 / qpmin=10 / qpmax=51 / qpstep=4 / ip_ratio=1.40 / aq=1:1.00
Default : Yes
Forced : No

Audio
ID : 2
Format : AAC
Format/Info : Advanced Audio Codec
Format profile : LC
Codec ID : A_AAC-2
Duration : 48 min 10 s
Bit rate : 96.0 kb/s
Channel(s) : 2 channels
Channel positions : Front: L R
Sampling rate : 44.1 kHz
Frame rate : 43.066 FPS (1024 SPF)
Compression mode : Lossy
Stream size : 33.0 MiB (4%)
Default : Yes
Forced : No

Text
ID : 3
Format : UTF-8
Codec ID : S_TEXT/UTF8
Codec ID/Info : UTF-8 Plain Text
Duration : 47 min 26 s
Bit rate : 59 b/s
Count of elements : 1191
Stream size : 20.7 KiB (0%)
Language : English
Default : No
Forced : No





HAPPY! S02E09


HAPPY! S02E09


HAPPY! S02E09


HAPPY! S02E09


HAPPY! S02E09

All episodes