Featured TV Shows


HAPPY! S02E10

Posted By: Tavaz
1080p (FullHD) / WEBRip IMDb
HAPPY! S02E10

HAPPY! S02E10
WEBRip | MKV | 1920x1080 | English | H264 @ 3851 kbps | AAC @ 96 kbps | 46 min 45 s | 1.29 GiB


Corrupt ex-cop turned hitman Nick Sax's life is changed forever by a relentlessly positive, imaginary blue winged horse named Happy.

53a689d24d384f2fbb82aa793ce3d1a1.mkv (1.3 GB)



General
Unique ID : 227872270949264053519372246293691792343 (0xAB6E9A5EF90DBBA005ABA55D2B507BD7)
Complete name : ./53a689d24d384f2fbb82aa793ce3d1a1.mkv
Format : Matroska
Format version : Version 4 / Version 2
File size : 1.29 GiB
Duration : 46 min 45 s
Overall bit rate : 3 950 kb/s
Encoded date : UTC 2019-05-30 03:45:33
Writing application : mkvmerge v24.0.0 ('Beyond The Pale') 64-bit
Writing library : libebml v1.3.6 + libmatroska v1.4.9

Video
ID : 1
Format : AVC
Format/Info : Advanced Video Codec
Format profile : High@L4
Format settings : CABAC / 1 Ref Frames
Format settings, CABAC : Yes
Format settings, RefFrames : 1 frame
Codec ID : V_MPEG4/ISO/AVC
Duration : 46 min 44 s
Bit rate : 3 852 kb/s
Nominal bit rate : 4 200 kb/s
Width : 1 920 pixels
Height : 1 080 pixels
Display aspect ratio : 16:9
Frame rate mode : Constant
Frame rate : 23.976 (24000/1001) FPS
Color space : YUV
Chroma subsampling : 4:2:0
Bit depth : 8 bits
Scan type : Progressive
Bits/(Pixel*Frame) : 0.077
Stream size : 1.26 GiB (98%)
Writing library : x264 core 152
Encoding settings : cabac=1 / ref=1 / deblock=1:0:0 / analyse=0x3:0x113 / me=hex / subme=6 / psy=1 / psy_rd=1.00:0.00 / mixed_ref=0 / me_range=16 / chroma_me=0 / trellis=1 / 8x8dct=1 / cqm=0 / deadzone=21,11 / fast_pskip=1 / chroma_qp_offset=-2 / threads=8 / lookahead_threads=1 / sliced_threads=0 / nr=0 / decimate=1 / interlaced=0 / bluray_compat=0 / constrained_intra=0 / bframes=0 / weightp=2 / keyint=72 / keyint_min=25 / scenecut=0 / intra_refresh=0 / rc_lookahead=0 / rc=cbr / mbtree=0 / bitrate=4200 / ratetol=1.0 / qcomp=0.60 / qpmin=10 / qpmax=51 / qpstep=4 / vbv_maxrate=4200 / vbv_bufsize=1050 / nal_hrd=none / filler=0 / ip_ratio=1.40 / aq=1:1.00
Default : Yes
Forced : No

Audio
ID : 2
Format : AAC
Format/Info : Advanced Audio Codec
Format profile : LC
Codec ID : A_AAC-2
Duration : 46 min 44 s
Bit rate : 96.0 kb/s
Channel(s) : 2 channels
Channel positions : Front: L R
Sampling rate : 44.1 kHz
Frame rate : 43.066 FPS (1024 SPF)
Compression mode : Lossy
Delay relative to video : -42 ms
Stream size : 32.0 MiB (2%)
Default : Yes
Forced : No





HAPPY! S02E10


HAPPY! S02E10


HAPPY! S02E10


HAPPY! S02E10


HAPPY! S02E10

All episodes