Featured TV Shows


Harvey Beaks S01E35

Posted By: Tavaz
720p (HD) / WEBRip IMDb
Harvey Beaks S01E35

Harvey Beaks S01E35
WEBRip | MKV | 1280x720 | English | H264 @ 3043 kbps | AAC @ 96 kbps | 11 min 46 s | 265 MiB
Subtitles: English
Genre: Family, Animation, Comedy


A mild-mannered young bird and his best friends, a pair of rambunctious siblings called Fee and Foo, seek adventure and mischief in the magical forest that they call home.

Harvey.Beaks.S01E35.Yampions.720p.NICK.WEBRip.AAC2.0.H.264-RTN.mkv (264.5 MB)



General
Unique ID : 246533980701877916686648375961164148945 (0xB978B7B2F293ADC5BD0A36B2558F70D1)
Complete name : ./Harvey.Beaks.S01E35.Yampions.720p.NICK.WEBRip.AAC2.0.H.264-RTN.mkv
Format : Matroska
Format version : Version 4 / Version 2
File size : 265 MiB
Duration : 11 min 46 s
Overall bit rate mode : Variable
Overall bit rate : 3 140 kb/s
Encoded date : UTC 2016-03-25 19:13:52
Writing application : mkvmerge v8.5.2 ('Crosses') 32bit
Writing library : libebml v1.3.3 + libmatroska v1.4.4

Video
ID : 1
Format : AVC
Format/Info : Advanced Video Codec
Format profile : Main@L3.2
Format settings : CABAC / 4 Ref Frames
Format settings, CABAC : Yes
Format settings, RefFrames : 4 frames
Codec ID : V_MPEG4/ISO/AVC
Duration : 11 min 46 s
Bit rate mode : Variable
Bit rate : 3 043 kb/s
Maximum bit rate : 6 808 kb/s
Width : 1 280 pixels
Height : 720 pixels
Display aspect ratio : 16:9
Frame rate mode : Variable
Frame rate : 23.976 (23976/1000) FPS
Original frame rate : 23.976 (24000/1001) FPS
Color space : YUV
Chroma subsampling : 4:2:0
Bit depth : 8 bits
Scan type : Progressive
Bits/(Pixel*Frame) : 0.138
Stream size : 256 MiB (97%)
Language : English
Default : Yes
Forced : No
Color range : Limited

Audio
ID : 2
Format : AAC
Format/Info : Advanced Audio Codec
Format profile : HE-AAC / LC
Format settings : Explicit
Codec ID : A_AAC-2
Duration : 11 min 46 s
Bit rate : 96.0 kb/s
Channel(s) : 2 channels
Channel positions : Front: L R
Sampling rate : 48.0 kHz / 24.0 kHz
Frame rate : 23.438 FPS (1024 SPF)
Compression mode : Lossy
Delay relative to video : -42 ms
Stream size : 7.98 MiB (3%)
Language : English
Default : Yes
Forced : No

Text
ID : 3
Format : UTF-8
Codec ID : S_TEXT/UTF8
Codec ID/Info : UTF-8 Plain Text
Duration : 11 min 13 s
Bit rate : 131 b/s
Count of elements : 282
Stream size : 10.8 KiB (0%)
Language : English
Default : Yes
Forced : No





Harvey Beaks S01E35


Harvey Beaks S01E35


Harvey Beaks S01E35


Harvey Beaks S01E35


Harvey Beaks S01E35

All episodes