Index
# A B C D E F G H I J K L M N O P Q R S T U V W Y Z
Tags
Language
Tags

Featured TV Shows


Hightown S01E02

Posted By: Tavaz
720p (HD) / WEBRip IMDb
Hightown S01E02

Hightown S01E02
WEBRip | MKV | 1280x720 | English | H264 @ 5609 kbps | E-AC-3 @ 640 kbps | 55 min 19 s | 2.42 GiB
Subtitles: English
Genre: Drama


Amid the drug trade on Cape Cod, a body washes ashore and is discovered by an irreverent National Marine Fisheries Service officer, Jackie Quinones, who is determined to help solve the murder even if the state cops want her nowhere near the case.

d66a399a9e644fe0b3865d16d52481a2.mkv (2.4 GB)



General
Unique ID : 316081447230199544657747357498178947867 (0xEDCB12895E8BF3BA746B629959D24B1B)
Complete name : ./d66a399a9e644fe0b3865d16d52481a2.mkv
Format : Matroska
Format version : Version 4 / Version 2
File size : 2.42 GiB
Duration : 55 min 19 s
Overall bit rate : 6 252 kb/s
Encoded date : UTC 2020-05-23 22:03:53
Writing application : mkvmerge v46.0.0 ('No Deeper Escape') 64-bit
Writing library : libebml v1.3.10 + libmatroska v1.5.2

Video
ID : 1
Format : AVC
Format/Info : Advanced Video Codec
Format profile : High@L3.1
Format settings : CABAC / 4 Ref Frames
Format settings, CABAC : Yes
Format settings, RefFrames : 4 frames
Codec ID : V_MPEG4/ISO/AVC
Duration : 55 min 19 s
Bit rate mode : Constant
Bit rate : 5 610 kb/s
Nominal bit rate : 6 000 kb/s
Width : 1 280 pixels
Height : 720 pixels
Display aspect ratio : 16:9
Frame rate mode : Constant
Frame rate : 23.976 (24000/1001) FPS
Color space : YUV
Chroma subsampling : 4:2:0
Bit depth : 8 bits
Scan type : Progressive
Bits/(Pixel*Frame) : 0.254
Stream size : 2.17 GiB (90%)
Default : Yes
Forced : No
Color range : Limited
Color primaries : BT.709
Transfer characteristics : BT.709
Matrix coefficients : BT.709

Audio
ID : 2
Format : E-AC-3
Format/Info : Enhanced Audio Coding 3
Format settings, Endianness : Big
Codec ID : A_EAC3
Duration : 55 min 19 s
Bit rate mode : Constant
Bit rate : 640 kb/s
Channel(s) : 6 channels
Channel positions : Front: L C R, Side: L R, LFE
Sampling rate : 48.0 kHz
Frame rate : 187.500 FPS (256 SPF)
Compression mode : Lossy
Stream size : 253 MiB (10%)
Title : English
Language : English
Service kind : Complete Main
Default : Yes
Forced : No

Text #1
ID : 3
Format : UTF-8
Codec ID : S_TEXT/UTF8
Codec ID/Info : UTF-8 Plain Text
Duration : 53 min 40 s
Bit rate : 64 b/s
Count of elements : 840
Stream size : 25.5 KiB (0%)
Title : English
Language : English
Default : No
Forced : No

Text #2
ID : 4
Format : UTF-8
Codec ID : S_TEXT/UTF8
Codec ID/Info : UTF-8 Plain Text
Duration : 54 min 58 s
Bit rate : 80 b/s
Count of elements : 1184
Stream size : 32.4 KiB (0%)
Title : English (SDH)
Language : English
Default : No
Forced : No





Hightown S01E02


Hightown S01E02


Hightown S01E02


Hightown S01E02


Hightown S01E02

All episodes