Index
# A B C D E F G H I J K L M N O P Q R S T U V W Y Z
Tags
Language
Tags

Featured TV Shows


Hightown S01E03

Posted By: Tavaz
1080p (FullHD) / WEBRip IMDb
Hightown S01E03

Hightown S01E03
WEBRip | MKV | 1920x1080 | English | H264 @ 10000 kbps | E-AC-3 @ 640 kbps | 55 min 43 s | 3.99 GiB
Subtitles: English
Genre: Drama


Amid the drug trade on Cape Cod, a body washes ashore and is discovered by an irreverent National Marine Fisheries Service officer, Jackie Quinones, who is determined to help solve the murder even if the state cops want her nowhere near the case.

19965513c41b49e4b302fc611ff4d745.mkv (4.0 GB)



General
Unique ID : 109065957666968313437848897414359851804 (0x520D56E180DD6F468DC1F854E8FEA31C)
Complete name : ./19965513c41b49e4b302fc611ff4d745.mkv
Format : Matroska
Format version : Version 4 / Version 2
File size : 3.99 GiB
Duration : 55 min 43 s
Overall bit rate : 10.2 Mb/s
Encoded date : UTC 2020-05-30 22:03:30
Writing application : mkvmerge v47.0.0 ('Black Flag') 64-bit
Writing library : libebml v1.3.10 + libmatroska v1.5.2

Video
ID : 1
Format : AVC
Format/Info : Advanced Video Codec
Format profile : High@L4
Format settings : CABAC / 4 Ref Frames
Format settings, CABAC : Yes
Format settings, RefFrames : 4 frames
Codec ID : V_MPEG4/ISO/AVC
Duration : 55 min 43 s
Bit rate mode : Constant
Bit rate : 10 000 kb/s
Width : 1 920 pixels
Height : 1 080 pixels
Display aspect ratio : 16:9
Frame rate mode : Constant
Frame rate : 23.976 (24000/1001) FPS
Color space : YUV
Chroma subsampling : 4:2:0
Bit depth : 8 bits
Scan type : Progressive
Bits/(Pixel*Frame) : 0.201
Stream size : 3.74 GiB (94%)
Default : Yes
Forced : No
Color range : Limited
Color primaries : BT.709
Transfer characteristics : BT.709
Matrix coefficients : BT.709

Audio
ID : 2
Format : E-AC-3
Format/Info : Enhanced Audio Coding 3
Format settings, Endianness : Big
Codec ID : A_EAC3
Duration : 55 min 43 s
Bit rate mode : Constant
Bit rate : 640 kb/s
Channel(s) : 6 channels
Channel positions : Front: L C R, Side: L R, LFE
Sampling rate : 48.0 kHz
Frame rate : 187.500 FPS (256 SPF)
Compression mode : Lossy
Stream size : 255 MiB (6%)
Title : English
Language : English
Service kind : Complete Main
Default : Yes
Forced : No

Text #1
ID : 3
Format : UTF-8
Codec ID : S_TEXT/UTF8
Codec ID/Info : UTF-8 Plain Text
Duration : 53 min 54 s
Bit rate : 65 b/s
Count of elements : 848
Stream size : 25.7 KiB (0%)
Title : English
Language : English
Default : No
Forced : No

Text #2
ID : 4
Format : UTF-8
Codec ID : S_TEXT/UTF8
Codec ID/Info : UTF-8 Plain Text
Duration : 55 min 29 s
Bit rate : 92 b/s
Count of elements : 1283
Stream size : 37.5 KiB (0%)
Title : English (SDH)
Language : English
Default : No
Forced : No





Hightown S01E03


Hightown S01E03


Hightown S01E03


Hightown S01E03


Hightown S01E03

All episodes