Featured TV Shows


Homeland S08E09

Posted By: Tavaz
1080p (FullHD) / WEBRip IMDb
Homeland S08E09

Homeland S08E09
WEBRip | MKV | 1920x1080 | H264 @ 4714 kbps | E-AC-3 @ 256 kbps | 48 min 0 s | 1.67 GiB
Subtitles: English
Genre: Crime, Drama


CIA officer Carrie Mathison is tops in her field despite being bipolar, which makes her volatile and unpredictable. With the help of her long-time mentor Saul Berenson, Carrie fearlessly risks everything, including her personal well-being and even sanity, at every turn.

dbeffd4c8d184355bbeea496be1b1b4d.mkv (1.7 GB)



General
Unique ID : 223024558200405628394545406982950131874 (0xA7C8F7ADE553E632431636A51A2A98A2)
Complete name : ./dbeffd4c8d184355bbeea496be1b1b4d.mkv
Format : Matroska
Format version : Version 4 / Version 2
File size : 1.67 GiB
Duration : 48 min 0 s
Overall bit rate : 4 973 kb/s
Encoded date : UTC 2020-04-05 04:00:34
Writing application : mkvmerge v38.0.0 ('The Silent Type') 64-bit
Writing library : libebml v1.3.9 + libmatroska v1.5.2

Video
ID : 1
Format : AVC
Format/Info : Advanced Video Codec
Format profile : High@L4
Format settings : CABAC / 4 Ref Frames
Format settings, CABAC : Yes
Format settings, RefFrames : 4 frames
Codec ID : V_MPEG4/ISO/AVC
Duration : 48 min 0 s
Bit rate : 4 715 kb/s
Width : 1 920 pixels
Height : 1 080 pixels
Display aspect ratio : 16:9
Frame rate mode : Constant
Frame rate : 23.976 (24000/1001) FPS
Color space : YUV
Chroma subsampling : 4:2:0
Bit depth : 8 bits
Scan type : Progressive
Bits/(Pixel*Frame) : 0.095
Stream size : 1.58 GiB (95%)
Default : Yes
Forced : No

Audio
ID : 2
Format : E-AC-3
Format/Info : Enhanced Audio Coding 3
Format settings, Endianness : Big
Codec ID : A_EAC3
Duration : 48 min 0 s
Bit rate mode : Constant
Bit rate : 256 kb/s
Channel(s) : 6 channels
Channel positions : Front: L C R, Side: L R, LFE
Sampling rate : 48.0 kHz
Frame rate : 187.500 FPS (256 SPF)
Compression mode : Lossy
Stream size : 87.9 MiB (5%)
Service kind : Complete Main
Default : Yes
Forced : No

Text
ID : 3
Format : UTF-8
Codec ID : S_TEXT/UTF8
Codec ID/Info : UTF-8 Plain Text
Duration : 47 min 52 s
Bit rate : 73 b/s
Count of elements : 888
Stream size : 25.6 KiB (0%)
Language : English
Default : No
Forced : No





Homeland S08E09


Homeland S08E09


Homeland S08E09


Homeland S08E09


Homeland S08E09

All episodes