Featured TV Shows


I Hate Suzie S01E04

Posted By: MegoNecia
1080p (FullHD) / WEB-DL IMDb
I Hate Suzie S01E04

I Hate Suzie S01E04
WEB-DL | MKV | 1920x1080 | English | H264 @ 3728 kbps | AAC @ 445 kbps | 32 min 51 s | 983 MiB
Subtitles: English
Genre: Comedy, Drama


Suzie Pickles, a star on the wane, has her whole life upended when her phone is hacked and a photo of her emerges in an extremely compromising position.

e168ee67cd8fc7931be7abc5b2d3be4a.mkv (983.1 MB)



General
Unique ID : 159638305544781865385955893289587949683 (0x7819382385240EC8DACAC5F94615C073)
Complete name : ./e168ee67cd8fc7931be7abc5b2d3be4a.mkv
Format : Matroska
Format version : Version 4 / Version 2
File size : 983 MiB
Duration : 32 min 51 s
Overall bit rate : 4 182 kb/s
Encoded date : UTC 2020-08-28 15:59:37
Writing application : mkvmerge v47.0.0 ('Black Flag') 64-bit
Writing library : libebml v1.3.10 + libmatroska v1.5.2

Video
ID : 1
Format : AVC
Format/Info : Advanced Video Codec
Format profile : High@L4
Format settings : CABAC / 4 Ref Frames
Format settings, CABAC : Yes
Format settings, RefFrames : 4 frames
Codec ID : V_MPEG4/ISO/AVC
Duration : 32 min 51 s
Bit rate : 3 728 kb/s
Width : 1 920 pixels
Height : 1 080 pixels
Display aspect ratio : 16:9
Frame rate mode : Constant
Frame rate : 25.000 FPS
Color space : YUV
Chroma subsampling : 4:2:0
Bit depth : 8 bits
Scan type : Progressive
Bits/(Pixel*Frame) : 0.072
Stream size : 876 MiB (89%)
Default : Yes
Forced : No
Color range : Limited
Color primaries : BT.709
Transfer characteristics : BT.709
Matrix coefficients : BT.709

Audio
ID : 2
Format : AAC
Format/Info : Advanced Audio Codec
Format profile : LC
Codec ID : A_AAC-2
Duration : 32 min 51 s
Bit rate : 445 kb/s
Channel(s) : 6 channels
Channel positions : Front: L C R, Side: L R, LFE
Sampling rate : 48.0 kHz
Frame rate : 46.875 FPS (1024 SPF)
Compression mode : Lossy
Stream size : 105 MiB (11%)
Language : English
Default : Yes
Forced : No

Text
ID : 3
Format : UTF-8
Codec ID : S_TEXT/UTF8
Codec ID/Info : UTF-8 Plain Text
Duration : 32 min 39 s
Bit rate : 81 b/s
Count of elements : 584
Stream size : 19.4 KiB (0%)
Language : English
Default : No
Forced : No





I Hate Suzie S01E04


I Hate Suzie S01E04


I Hate Suzie S01E04


I Hate Suzie S01E04


I Hate Suzie S01E04

All episodes