Late Night with Jimmy Fallon 2018-01-24

Posted By: Tavaz
1080p (FullHD) / WEB-DL IMDb
Late Night with Jimmy Fallon 2018-01-24

Late Night with Jimmy Fallon 2018-01-24
WEB-DL | MKV | 1920x1080 | English | H264 @ 5797 kbps | AAC @ 64 kbps | 40 min 57 s | 1.68 GiB
Subtitles: English
Genre: Comedy

Late Night with Jimmy Fallon is an American late-night talk show airing weeknights at 12:35 am Eastern/11:35 pm Central on NBC in the United States. The hour-long show premiered on March 2, 2009, and is hosted by actor, comedian and performer Jimmy Fallon, an alumnus of Saturday Night Live. Hip hop/neo soul band The Roots serve as the show's house band, and Steve Higgins is the show's announcer.

The third incarnation of the Late Night franchise originated by David Letterman, the program originates from NBC Studio 6B in the GE Building at 30 Rockefeller Center in New York City. The show typically opens with a brief monologue from Fallon, followed by a comedy "desk piece," as well as prerecorded segments and audience competitions. The next segment is devoted to a celebrity interview, with guests ranging from actors and musicians to media personalities and political figures. The show then closes with either a musical or comedy performance. The show frequently employs digital media into its comedy, which has become crucial to its success. Fallon has been appointed to become the next host of The Tonight Show, where he will succeed the current host Jay Leno at the conclusion of the 2014 Winter Olympics, with fellow SNL alum Seth Meyers slated to replace Fallon.

Late.Night.With.Seth.Meyers.2018.01.24.Jim.Gaffigan.Van.Jones.Josh.Gondelman.1080p.HULU.WEB-DL.AAC2.0.H.264-monkee.mkv (1.7 GB)



General
Unique ID : 220843605227204136420509379548189685593 (0xA624EE654F11BDFBB9987F823AC1F759)
Complete name : ./Late.Night.With.Seth.Meyers.2018.01.24.Jim.Gaffigan.Van.Jones.Josh.Gondelman.1080p.HULU.WEB-DL.AAC2.0.H.264-monkee.mkv
Format : Matroska
Format version : Version 4 / Version 2
File size : 1.68 GiB
Duration : 40 min 57 s
Overall bit rate : 5 863 kb/s
Encoded date : UTC 2018-01-26 02:49:19
Writing application : mkvmerge v9.5.0 ('Quiet Fire') 32bit
Writing library : libebml v1.3.4 + libmatroska v1.4.5

Video
ID : 1
Format : AVC
Format/Info : Advanced Video Codec
Format profile : High@L4
Format settings : CABAC / 4 Ref Frames
Format settings, CABAC : Yes
Format settings, RefFrames : 4 frames
Codec ID : V_MPEG4/ISO/AVC
Duration : 40 min 57 s
Bit rate : 5 797 kb/s
Width : 1 920 pixels
Height : 1 080 pixels
Display aspect ratio : 16:9
Frame rate mode : Constant
Frame rate : 29.970 (30000/1001) FPS
Color space : YUV
Chroma subsampling : 4:2:0
Bit depth : 8 bits
Scan type : Progressive
Bits/(Pixel*Frame) : 0.093
Stream size : 1.66 GiB (99%)
Default : Yes
Forced : No

Audio
ID : 2
Format : AAC
Format/Info : Advanced Audio Codec
Format profile : HE-AAC / LC
Format settings : Explicit
Codec ID : A_AAC-2
Duration : 40 min 57 s
Bit rate : 64.0 kb/s
Channel(s) : 2 channels
Channel positions : Front: L R
Sampling rate : 48.0 kHz / 24.0 kHz
Frame rate : 23.438 FPS (1024 SPF)
Compression mode : Lossy
Stream size : 18.8 MiB (1%)
Default : Yes
Forced : No

Text
ID : 3
Format : UTF-8
Codec ID : S_TEXT/UTF8
Codec ID/Info : UTF-8 Plain Text
Duration : 40 min 44 s
Bit rate : 132 b/s
Count of elements : 861
Stream size : 39.6 KiB (0%)
Language : English
Default : No
Forced : No

Menu
00:00:00.000 : en:Chapter 1
00:14:14.233 : en:Chapter 2
00:23:00.166 : en:Chapter 3
00:30:41.100 : en:Chapter 4
00:34:54.966 : en:Chapter 5
00:40:33.833 : en:Chapter 6





Late Night with Jimmy Fallon 2018-01-24


Late Night with Jimmy Fallon 2018-01-24


Late Night with Jimmy Fallon 2018-01-24


Late Night with Jimmy Fallon 2018-01-24


Late Night with Jimmy Fallon 2018-01-24