Featured TV Shows


Legacies S02E09

Posted By: Tavaz
1080p (FullHD) / WEBRip IMDb
Legacies S02E09

Legacies S02E09
WEBRip | MKV | 1920x1080 | English | H264 @ 8000 kbps | AAC @ 125 kbps | 42 min 29 s | 2.37 GiB
Genre: Drama


In a place where young witches, vampires, and werewolves are nurtured to be their best selves in spite of their worst impulses, Klaus Mikaelson’s daughter, 17-year-old Hope Mikaelson, Alaric Saltzman’s twins, Lizzie and Josie Saltzman, among others, come of age into heroes and villains at The Salvatore School for the Young and Gifted.

e93a61887cad4ca6b597d73705e1f9ce.mkv (2.4 GB)



General
Unique ID : 139157676034402304394530967200921448804 (0x68B0CB248F28AD5E5C8D31F3C6367164)
Complete name : ./e93a61887cad4ca6b597d73705e1f9ce.mkv
Format : Matroska
Format version : Version 4 / Version 2
File size : 2.37 GiB
Duration : 42 min 29 s
Overall bit rate : 7 992 kb/s
Encoded date : UTC 2020-01-17 06:04:03
Writing application : mkvmerge v38.0.0 ('The Silent Type') 64-bit
Writing library : libebml v1.3.9 + libmatroska v1.5.2

Video
ID : 1
Format : AVC
Format/Info : Advanced Video Codec
Format profile : High@L4
Format settings : CABAC / 3 Ref Frames
Format settings, CABAC : Yes
Format settings, RefFrames : 3 frames
Codec ID : V_MPEG4/ISO/AVC
Duration : 42 min 29 s
Bit rate mode : Constant
Bit rate : 8 000 kb/s
Width : 1 920 pixels
Height : 1 080 pixels
Display aspect ratio : 16:9
Frame rate mode : Constant
Frame rate : 23.976 (24000/1001) FPS
Color space : YUV
Chroma subsampling : 4:2:0
Bit depth : 8 bits
Scan type : Progressive
Bits/(Pixel*Frame) : 0.161
Stream size : 2.33 GiB (98%)
Default : Yes
Forced : No

Audio
ID : 2
Format : AAC
Format/Info : Advanced Audio Codec
Format profile : LC
Codec ID : A_AAC-2
Duration : 42 min 29 s
Bit rate : 126 kb/s
Channel(s) : 2 channels
Channel positions : Front: L R
Sampling rate : 44.1 kHz
Frame rate : 43.066 FPS (1024 SPF)
Compression mode : Lossy
Stream size : 38.2 MiB (2%)
Language : English
Default : Yes
Forced : No





Legacies S02E09


Legacies S02E09


Legacies S02E09


Legacies S02E09


Legacies S02E09

All episodes