Marvel's Agents of S.H.I.E.L.D. S05E15

Posted By: Tavaz
1080p (FullHD) / WEBRip IMDb
Marvel's Agents of S.H.I.E.L.D. S05E15

Marvel's Agents of S.H.I.E.L.D. S05E15
WEBRip | MKV | 1920x1080 | English | H264 @ 7915 kbps | E-AC-3 @ 640 kbps | 43 min 32 s | 2.66 GiB
Subtitles: English
Genre: Fantasy, Drama, Action, Adventure, Science Fiction

Agent Phil Coulson of S.H.I.E.L.D. (Strategic Homeland Intervention, Enforcement and Logistics Division) puts together a team of agents to investigate the new, the strange and the unknown around the globe, protecting the ordinary from the extraordinary.

ee0324c52c51402b941981be1417f64b.mkv (2.7 GB)



General
Unique ID : 252137211486112962420562898987191335005 (0xBDAFDC4E490F34A06CF211B65547785D)
Complete name : ./ee0324c52c51402b941981be1417f64b.mkv
Format : Matroska
Format version : Version 4 / Version 2
File size : 2.66 GiB
Duration : 43 min 32 s
Overall bit rate mode : Variable
Overall bit rate : 8 729 kb/s
Encoded date : UTC 2018-03-31 00:05:15
Writing application : mkvmerge v20.0.0 (master: 2421163 / deflate: b81f064) [X86_64]
Writing library : libebml v1.3.5 + libmatroska v1.4.8

Video
ID : 1
Format : AVC
Format/Info : Advanced Video Codec
Format profile : High@L4
Format settings : CABAC / 4 Ref Frames
Format settings, CABAC : Yes
Format settings, RefFrames : 4 frames
Codec ID : V_MPEG4/ISO/AVC
Duration : 43 min 32 s
Bit rate mode : Variable
Bit rate : 7 916 kb/s
Maximum bit rate : 15.0 Mb/s
Width : 1 920 pixels
Height : 1 080 pixels
Display aspect ratio : 16:9
Frame rate mode : Constant
Frame rate : 23.976 (24000/1001) FPS
Color space : YUV
Chroma subsampling : 4:2:0
Bit depth : 8 bits
Scan type : Progressive
Bits/(Pixel*Frame) : 0.159
Stream size : 2.41 GiB (91%)
Language : English
Default : Yes
Forced : No
Color range : Limited
Color primaries : BT.709
Transfer characteristics : BT.709
Matrix coefficients : BT.709

Audio
ID : 2
Format : E-AC-3
Format/Info : Enhanced Audio Coding 3
Format settings, Endianness : Big
Codec ID : A_EAC3
Duration : 43 min 32 s
Bit rate mode : Constant
Bit rate : 640 kb/s
Channel(s) : 6 channels
Channel positions : Front: L C R, Side: L R, LFE
Sampling rate : 48.0 kHz
Frame rate : 187.500 FPS (256 SPF)
Compression mode : Lossy
Stream size : 199 MiB (7%)
Language : English
Service kind : Complete Main
Default : Yes
Forced : No

Text #1
ID : 3
Format : UTF-8
Codec ID : S_TEXT/UTF8
Codec ID/Info : UTF-8 Plain Text
Title : English
Language : English
Default : No
Forced : No

Text #2
ID : 4
Format : UTF-8
Codec ID : S_TEXT/UTF8
Codec ID/Info : UTF-8 Plain Text
Title : English (SDH)
Language : English
Default : No
Forced : No





Marvel's Agents of S.H.I.E.L.D. S05E15


Marvel's Agents of S.H.I.E.L.D. S05E15


Marvel's Agents of S.H.I.E.L.D. S05E15


Marvel's Agents of S.H.I.E.L.D. S05E15


Marvel's Agents of S.H.I.E.L.D. S05E15

All episodes