Marvel's Iron Fist S01E04

Posted By: Tavaz
SD / BDRip IMDb
Marvel's Iron Fist S01E04

Marvel's Iron Fist S01E04
BDRip | MKV | 720x404 | German | H264 @ 915 kbps | AC-3 @ 384 kbps | 53 min 24 s | 497 MiB
Subtitles: German
Genre: Crime, Drama

Danny Rand resurfaces 15 years after being presumed dead. Now, with the power of the Iron Fist, he seeks to reclaim his past and fulfill his destiny.

tv4a-ironfist.s01e04-sd-forced.sub (62.0 KB)
tv4a-ironfist.s01e04-sd-eng.idx (33.1 KB)
tv4a-ironfist.s01e04-sd-forced.idx (1.5 KB)
tv4a-ironfist.s01e04-sd-sample.mkv (7.0 MB)
tv4a-ironfist.s01e04-sd.sub (3.6 MB)
tv4a-ironfist.s01e04-sd.mkv (496.5 MB)
tv4a-ironfist.s01e04-sd-eng.sub (4.4 MB)
tv4a-ironfist.s01e04-sd.idx (25.4 KB)



General
Unique ID : 210063977326799259705112460289096775437 (0x9E08D9B4EEFB20EBE24442C6E437770D)
Complete name : ./tv4a-ironfist.s01e04-sd.mkv
Format : Matroska
Format version : Version 4 / Version 2
File size : 497 MiB
Duration : 53 min 24 s
Overall bit rate : 1 300 kb/s
Encoded date : UTC 2018-05-27 05:33:34
Writing application : mkvmerge v23.0.0 ('The Bride Said No') 64-bit
Writing library : libebml v1.3.6 + libmatroska v1.4.9

Video
ID : 1
Format : AVC
Format/Info : Advanced Video Codec
Format profile : High@L3.1
Format settings : CABAC / 5 Ref Frames
Format settings, CABAC : Yes
Format settings, RefFrames : 5 frames
Codec ID : V_MPEG4/ISO/AVC
Duration : 53 min 20 s
Bit rate : 915 kb/s
Width : 720 pixels
Height : 404 pixels
Display aspect ratio : 16:9
Frame rate mode : Constant
Frame rate : 23.976 (24000/1001) FPS
Color space : YUV
Chroma subsampling : 4:2:0
Bit depth : 8 bits
Scan type : Progressive
Bits/(Pixel*Frame) : 0.131
Stream size : 349 MiB (70%)
Writing library : x264 core 155 r2901 7d0ff22
Encoding settings : cabac=1 / ref=5 / deblock=1:-2:-2 / analyse=0x3:0x113 / me=umh / subme=8 / psy=1 / psy_rd=1.00:0.15 / mixed_ref=1 / me_range=16 / chroma_me=1 / trellis=2 / 8x8dct=1 / cqm=0 / deadzone=21,11 / fast_pskip=0 / chroma_qp_offset=-3 / threads=13 / lookahead_threads=2 / sliced_threads=0 / nr=0 / decimate=1 / interlaced=0 / bluray_compat=0 / constrained_intra=0 / bframes=3 / b_pyramid=2 / b_adapt=1 / b_bias=0 / direct=1 / weightb=1 / open_gop=0 / weightp=2 / keyint=250 / keyint_min=23 / scenecut=40 / intra_refresh=0 / rc_lookahead=50 / rc=crf / mbtree=1 / crf=19.0 / qcomp=0.60 / qpmin=0 / qpmax=69 / qpstep=4 / ip_ratio=1.40 / aq=1:1.00
Default : Yes
Forced : No
Color range : Limited
Matrix coefficients : BT.709

Audio
ID : 2
Format : AC-3
Format/Info : Audio Coding 3
Format settings, Endianness : Big
Codec ID : A_AC3
Duration : 53 min 24 s
Bit rate mode : Constant
Bit rate : 384 kb/s
Channel(s) : 6 channels
Channel positions : Front: L C R, Side: L R, LFE
Sampling rate : 48.0 kHz
Frame rate : 31.250 FPS (1536 SPF)
Bit depth : 16 bits
Compression mode : Lossy
Stream size : 147 MiB (30%)
Language : German
Service kind : Complete Main
Default : Yes
Forced : No

Text
ID : 3
Format : UTF-8
Codec ID : S_TEXT/UTF8
Codec ID/Info : UTF-8 Plain Text
Duration : 50 min 46 s
Bit rate : 0 b/s
Count of elements : 10
Stream size : 284 Bytes (0%)
Language : German
Default : Yes
Forced : Yes





Marvel's Iron Fist S01E04


Marvel's Iron Fist S01E04


Marvel's Iron Fist S01E04


Marvel's Iron Fist S01E04


Marvel's Iron Fist S01E04

All episodes