Featured TV Shows


Marvel's Jessica Jones S03E12

Posted By: Tavaz
1080p (FullHD) / WEBRip IMDb
Marvel's Jessica Jones S03E12

Marvel's Jessica Jones S03E12
WEBRip | MKV | 1920x1080 | French / English | H264 @ 3320 kbps | E-AC-3 @ 640 kbps | 49 min 9 s | 1.60 GiB
Subtitles: French, English
Genre: Drama


After a tragic ending to her short-lived super hero stint, Jessica Jones is rebuilding her personal life and career as a detective who gets pulled into cases involving people with extraordinary abilities in New York City.

marvels.jessica.jones.s03e12.multi.1080p.web.x264-cielos.mkv (1.6 GB)
marvels.jessica.jones.s03e12.multi.1080p.web.x264-cielos.sample.mkv (39.1 MB)



General
Unique ID : 159230280700695041523848959256020544344 (0x77CAA2F5F44F7715E94AFF761BCE6B58)
Complete name : ./marvels.jessica.jones.s03e12.multi.1080p.web.x264-cielos.mkv
Format : Matroska
Format version : Version 4 / Version 2
File size : 1.60 GiB
Duration : 49 min 9 s
Overall bit rate mode : Variable
Overall bit rate : 4 668 kb/s
Encoded date : UTC 2019-06-14 07:28:27
Writing application : mkvmerge v33.1.0 ('Primrose') 64-bit
Writing library : libebml v1.3.7 + libmatroska v1.5.0

Video
ID : 1
Format : AVC
Format/Info : Advanced Video Codec
Format profile : Main@L4
Format settings : CABAC / 3 Ref Frames
Format settings, CABAC : Yes
Format settings, RefFrames : 3 frames
Codec ID : V_MPEG4/ISO/AVC
Duration : 49 min 9 s
Bit rate mode : Variable
Bit rate : 3 320 kb/s
Maximum bit rate : 4 980 kb/s
Width : 1 920 pixels
Height : 1 080 pixels
Display aspect ratio : 16:9
Frame rate mode : Constant
Frame rate : 23.976 (24000/1001) FPS
Color space : YUV
Chroma subsampling : 4:2:0
Bit depth : 8 bits
Scan type : Progressive
Bits/(Pixel*Frame) : 0.067
Stream size : 1.12 GiB (70%)
Writing library : x264 core 148 r2715 7e75228
Encoding settings : cabac=1 / ref=3 / deblock=1:0:0 / analyse=0x1:0x111 / me=umh / subme=10 / psy=1 / psy_rd=1.00:0.00 / mixed_ref=1 / me_range=24 / chroma_me=1 / trellis=2 / 8x8dct=0 / cqm=0 / deadzone=21,11 / fast_pskip=1 / chroma_qp_offset=-2 / threads=8 / lookahead_threads=1 / sliced_threads=0 / nr=0 / decimate=1 / interlaced=0 / bluray_compat=0 / stitchable=1 / constrained_intra=0 / bframes=2 / b_pyramid=0 / b_adapt=2 / b_bias=0 / direct=3 / weightb=1 / open_gop=0 / weightp=2 / keyint=48 / keyint_min=25 / scenecut=0 / intra_refresh=0 / rc_lookahead=48 / rc=2pass / mbtree=1 / bitrate=3320 / ratetol=1.0 / qcomp=0.50 / qpmin=6 / qpmax=51 / qpstep=4 / cplxblur=20.0 / qblur=0.5 / vbv_maxrate=4980 / vbv_bufsize=6640 / nal_hrd=vbr / filler=0 / ip_ratio=1.40 / aq=1:1.00
Default : Yes
Forced : No

Audio #1
ID : 2
Format : E-AC-3
Format/Info : Enhanced Audio Coding 3
Format settings, Endianness : Big
Codec ID : A_EAC3
Duration : 49 min 9 s
Bit rate mode : Constant
Bit rate : 640 kb/s
Channel(s) : 6 channels
Channel positions : Front: L C R, Side: L R, LFE
Sampling rate : 48.0 kHz
Frame rate : 187.500 FPS (256 SPF)
Compression mode : Lossy
Stream size : 225 MiB (14%)
Title : French
Language : French
Service kind : Complete Main
Default : Yes
Forced : No

Audio #2
ID : 3
Format : E-AC-3
Format/Info : Enhanced Audio Coding 3
Format profile : E-AC-3+Atmos / E-AC-3
Format settings, Endianness : Big
Codec ID : A_EAC3
Duration : 49 min 9 s
Bit rate mode : Constant
Bit rate : 768 kb/s
Channel(s) : 15 objects / 6 channels
Channel positions : 15 objects / Front: L C R, Side: L R, LFE
Sampling rate : 48.0 kHz
Frame rate : 187.500 FPS (256 SPF)
Compression mode : Lossy
Stream size : 270 MiB (16%)
Title : English
Language : English
Service kind : Complete Main
Default : No
Forced : No

Text #1
ID : 4
Format : UTF-8
Codec ID : S_TEXT/UTF8
Codec ID/Info : UTF-8 Plain Text
Duration : 47 min 45 s
Bit rate : 0 b/s
Count of elements : 6
Stream size : 114 Bytes (0%)
Title : French (Forced)
Language : French
Default : Yes
Forced : Yes

Text #2
ID : 5
Format : UTF-8
Codec ID : S_TEXT/UTF8
Codec ID/Info : UTF-8 Plain Text
Duration : 47 min 45 s
Bit rate : 46 b/s
Count of elements : 529
Stream size : 16.3 KiB (0%)
Title : French
Language : French
Default : No
Forced : No

Text #3
ID : 6
Format : UTF-8
Codec ID : S_TEXT/UTF8
Codec ID/Info : UTF-8 Plain Text
Duration : 46 min 50 s
Bit rate : 54 b/s
Count of elements : 613
Stream size : 18.5 KiB (0%)
Title : English (SDH)
Language : English
Default : No
Forced : No





Marvel's Jessica Jones S03E12


Marvel's Jessica Jones S03E12


Marvel's Jessica Jones S03E12


Marvel's Jessica Jones S03E12


Marvel's Jessica Jones S03E12

All episodes