Featured TV Shows


Mary Kills People S01E04

Posted By: Tavaz
1080p (FullHD) / WEB-DL IMDb
Mary Kills People S01E04

Mary Kills People S01E04
WEB-DL | MKV | 1920x1080 | English | H264 @ 12090 kbps | E-AC-3 @ 224 kbps | 42 min 25 s | 3.65 GiB
Subtitles: English
Genre: Drama

Dr. Mary Harris, a single mother and emergency doctor by day, also moonlights as an underground angel of death — helping terminally ill patients who want to die and slip away on their own terms. So far Mary has managed to stay under the radar; but business is booming, and her double life is getting complicated. When her world starts to unravel, Mary realizes she’s going to have to fight dirty if she’s going to stay in the killing game.

08d165bd2b28461d8538779035be43fb.mkv (3.6 GB)



General
Complete name : ./08d165bd2b28461d8538779035be43fb.mkv
Format : Matroska
Format version : Version 4 / Version 2
File size : 3.65 GiB
Duration : 42 min 25 s
Overall bit rate mode : Variable
Overall bit rate : 12.3 Mb/s
Encoded date : UTC 2017-07-29 19:06:16
Writing application : mkvmerge v13.0.0 ('The Juggler') 64bit
Writing library : libebml v1.3.4 + libmatroska v1.4.5

Video
ID : 1
Format : AVC
Format/Info : Advanced Video Codec
Format profile : High@L4
Format settings : CABAC / 4 Ref Frames
Format settings, CABAC : Yes
Format settings, RefFrames : 4 frames
Codec ID : V_MPEG4/ISO/AVC
Duration : 42 min 25 s
Bit rate mode : Variable
Bit rate : 12.1 Mb/s
Maximum bit rate : 15.0 Mb/s
Width : 1 920 pixels
Height : 1 080 pixels
Display aspect ratio : 16:9
Frame rate mode : Constant
Frame rate : 23.976 (24000/1001) FPS
Color space : YUV
Chroma subsampling : 4:2:0
Bit depth : 8 bits
Scan type : Progressive
Bits/(Pixel*Frame) : 0.243
Stream size : 3.58 GiB (98%)
Default : Yes
Forced : No
Color range : Limited
Color primaries : BT.709
Transfer characteristics : BT.709
Matrix coefficients : BT.709

Audio
ID : 2
Format : E-AC-3
Format/Info : Enhanced Audio Coding 3
Format settings, Endianness : Big
Codec ID : A_EAC3
Duration : 42 min 25 s
Bit rate mode : Constant
Bit rate : 224 kb/s
Channel(s) : 2 channels
Channel positions : Front: L R
Sampling rate : 48.0 kHz
Frame rate : 187.500 FPS (256 SPF)
Compression mode : Lossy
Stream size : 68.0 MiB (2%)
Language : English
Service kind : Complete Main
Default : Yes
Forced : No

Text
ID : 3
Format : UTF-8
Codec ID : S_TEXT/UTF8
Codec ID/Info : UTF-8 Plain Text
Duration : 42 min 20 s
Bit rate : 73 b/s
Count of elements : 842
Stream size : 22.8 KiB (0%)
Language : English
Default : No
Forced : No





Mary Kills People S01E04


Mary Kills People S01E04


Mary Kills People S01E04


Mary Kills People S01E04


Mary Kills People S01E04

All episodes