Featured TV Shows


Mary Kills People S02E01

Posted By: Tavaz
SD / WEB-DL IMDb
Mary Kills People S02E01

Mary Kills People S02E01
WEB-DL | MOV | 720x400 | English | H264 @ 677 kbps | AAC @ 128 kbps | 43 min 31 s | 253 MiB
Genre: Drama

Dr. Mary Harris, a single mother and emergency doctor by day, also moonlights as an underground angel of death — helping terminally ill patients who want to die and slip away on their own terms. So far Mary has managed to stay under the radar; but business is booming, and her double life is getting complicated. When her world starts to unravel, Mary realizes she’s going to have to fight dirty if she’s going to stay in the killing game.

a4993e8e17ab40abb1df86570cb5002e.mp4 (252.6 MB)



General
Complete name : ./a4993e8e17ab40abb1df86570cb5002e.mp4
Format : MPEG-4
Format profile : Base Media
Codec ID : isom (isom/iso2/avc1/mp41)
File size : 253 MiB
Duration : 43 min 31 s
Overall bit rate : 811 kb/s
Movie name : RARBG - Mary.Kills.People.S02E01.WEB-DL.x264-RARBG
Encoded date : UTC 2018-01-04 04:45:44
Tagged date : UTC 2018-01-04 04:45:44
Writing application : Lavf57.83.100
Comment : RARBG - Mary.Kills.People.S02E01.WEB-DL.x264-RARBG

Video
ID : 1
Format : AVC
Format/Info : Advanced Video Codec
Format profile : High@L3.1
Format settings : CABAC / 5 Ref Frames
Format settings, CABAC : Yes
Format settings, RefFrames : 5 frames
Codec ID : avc1
Codec ID/Info : Advanced Video Coding
Duration : 43 min 31 s
Bit rate : 678 kb/s
Width : 720 pixels
Height : 400 pixels
Display aspect ratio : 16:9
Original display aspect ratio : 16:9
Frame rate mode : Constant
Frame rate : 23.976 (24000/1001) FPS
Color space : YUV
Chroma subsampling : 4:2:0
Bit depth : 8 bits
Scan type : Progressive
Bits/(Pixel*Frame) : 0.098
Stream size : 211 MiB (84%)
Title : RARBG - Mary.Kills.People.S02E01.WEB-DL.x264-RARBG
Writing library : x264 core 152 r2851M ba24899
Encoding settings : cabac=1 / ref=5 / deblock=1:-1:-1 / analyse=0x3:0x113 / me=umh / subme=9 / psy=1 / psy_rd=1.00:0.15 / mixed_ref=1 / me_range=16 / chroma_me=1 / trellis=2 / 8x8dct=1 / cqm=0 / deadzone=21,11 / fast_pskip=1 / chroma_qp_offset=-3 / threads=12 / lookahead_threads=1 / sliced_threads=0 / nr=0 / decimate=1 / interlaced=0 / bluray_compat=0 / constrained_intra=0 / bframes=3 / b_pyramid=2 / b_adapt=2 / b_bias=0 / direct=3 / weightb=1 / open_gop=0 / weightp=2 / keyint=250 / keyint_min=23 / scenecut=40 / intra_refresh=0 / rc_lookahead=50 / rc=crf / mbtree=1 / crf=19.0 / qcomp=0.60 / qpmin=0 / qpmax=69 / qpstep=4 / ip_ratio=1.40 / aq=1:1.00
Language : English
Encoded date : UTC 2018-01-04 04:45:44
Tagged date : UTC 2018-01-04 04:45:44

Audio
ID : 2
Format : AAC
Format/Info : Advanced Audio Codec
Format profile : LC
Codec ID : mp4a-40-2
Duration : 43 min 31 s
Bit rate mode : Constant
Bit rate : 128 kb/s
Channel(s) : 2 channels
Channel positions : Front: L R
Sampling rate : 48.0 kHz
Frame rate : 46.875 FPS (1024 SPF)
Compression mode : Lossy
Stream size : 39.8 MiB (16%)
Title : RARBG - Mary.Kills.People.S02E01.WEB-DL.x264-RARBG
Language : English
Default : Yes
Alternate group : 1
Encoded date : UTC 2018-01-04 04:45:44
Tagged date : UTC 2018-01-04 04:45:44





Mary Kills People S02E01


Mary Kills People S02E01


Mary Kills People S02E01


Mary Kills People S02E01


Mary Kills People S02E01

All episodes