Featured TV Shows


Mary Kills People S02E02

Posted By: Tavaz
1080p (FullHD) / WEB-DL IMDb
Mary Kills People S02E02

Mary Kills People S02E02
WEB-DL | MKV | 1914x1080 | English | H264 @ 5197 kbps | AC-3 @ 384 kbps | 43 min 31 s | 1.70 GiB
Subtitles: English
Genre: Dramma

Dr. Mary Harris, a single mother and emergency doctor by day, also moonlights as an underground angel of death — helping terminally ill patients who want to die and slip away on their own terms. So far Mary has managed to stay under the radar; but business is booming, and her double life is getting complicated. When her world starts to unravel, Mary realizes she’s going to have to fight dirty if she’s going to stay in the killing game.

b9060bf4fdd74f7482172a1d2d185a63.mkv (1.7 GB)



General
Unique ID : 228388052806678372547287280671037808870 (0xABD1F0614285729CA881FBBD8D3760E6)
Complete name : ./b9060bf4fdd74f7482172a1d2d185a63.mkv
Format : Matroska
Format version : Version 4 / Version 2
File size : 1.70 GiB
Duration : 43 min 31 s
Overall bit rate : 5 584 kb/s
Encoded date : UTC 2018-01-11 08:20:10
Writing application : mkvmerge v10.0.0 ('To Drown In You') 64bit
Writing library : libebml v1.3.4 + libmatroska v1.4.5

Video
ID : 1
Format : AVC
Format/Info : Advanced Video Codec
Format profile : High@L4
Format settings : CABAC / 4 Ref Frames
Format settings, CABAC : Yes
Format settings, RefFrames : 4 frames
Codec ID : V_MPEG4/ISO/AVC
Duration : 43 min 31 s
Bit rate : 5 198 kb/s
Width : 1 914 pixels
Height : 1 080 pixels
Display aspect ratio : 16:9
Frame rate mode : Constant
Frame rate : 23.976 (23976/1000) FPS
Color space : YUV
Chroma subsampling : 4:2:0
Bit depth : 8 bits
Scan type : Progressive
Bits/(Pixel*Frame) : 0.105
Stream size : 1.58 GiB (93%)
Language : English
Default : Yes
Forced : No
Color range : Limited
Color primaries : BT.709
Transfer characteristics : BT.709
Matrix coefficients : BT.709

Audio
ID : 2
Format : AC-3
Format/Info : Audio Coding 3
Format settings, Endianness : Big
Codec ID : A_AC3
Duration : 43 min 31 s
Bit rate mode : Constant
Bit rate : 384 kb/s
Channel(s) : 6 channels
Channel positions : Front: L C R, Side: L R, LFE
Sampling rate : 48.0 kHz
Frame rate : 31.250 FPS (1536 SPF)
Bit depth : 16 bits
Compression mode : Lossy
Delay relative to video : -42 ms
Stream size : 120 MiB (7%)
Language : English
Service kind : Complete Main
Default : Yes
Forced : No

Text
ID : 3
Format : UTF-8
Codec ID : S_TEXT/UTF8
Codec ID/Info : UTF-8 Plain Text
Duration : 43 min 2 s
Bit rate : 89 b/s
Count of elements : 667
Stream size : 28.2 KiB (0%)
Language : English
Default : No
Forced : No





Mary Kills People S02E02


Mary Kills People S02E02


Mary Kills People S02E02


Mary Kills People S02E02


Mary Kills People S02E02

All episodes