Featured TV Shows


Mary Kills People S02E03

Posted By: Tavaz
720p (HD) / HDTV IMDb
Mary Kills People S02E03

Mary Kills People S02E03
HDTV | MKV | 1280x720 | English | H264 @ 2416 kbps | AC-3 @ 384 kbps | 42 min 50 s | 859 MiB
Genre: Drama

Dr. Mary Harris, a single mother and emergency doctor by day, also moonlights as an underground angel of death — helping terminally ill patients who want to die and slip away on their own terms. So far Mary has managed to stay under the radar; but business is booming, and her double life is getting complicated. When her world starts to unravel, Mary realizes she’s going to have to fight dirty if she’s going to stay in the killing game.

e9bea37a074940e29dfd20b90b1aba64.mkv (858.8 MB)



General
Unique ID : 219884633235489616986226924791120115209 (0xA56C3D6D17EA21034ADAEA395699B609)
Complete name : ./e9bea37a074940e29dfd20b90b1aba64.mkv
Format : Matroska
Format version : Version 4 / Version 2
File size : 859 MiB
Duration : 42 min 50 s
Overall bit rate : 2 802 kb/s
Encoded date : UTC 2018-01-18 02:36:59
Writing application : mkvmerge v8.8.0 ('Wind at my back') 64bit
Writing library : libebml v1.3.3 + libmatroska v1.4.4

Video
ID : 1
Format : AVC
Format/Info : Advanced Video Codec
Format profile : High@L4.1
Format settings : CABAC / 5 Ref Frames
Format settings, CABAC : Yes
Format settings, RefFrames : 5 frames
Codec ID : V_MPEG4/ISO/AVC
Duration : 42 min 50 s
Bit rate : 2 416 kb/s
Width : 1 280 pixels
Height : 720 pixels
Display aspect ratio : 16:9
Frame rate mode : Constant
Frame rate : 23.976 (24000/1001) FPS
Color space : YUV
Chroma subsampling : 4:2:0
Bit depth : 8 bits
Scan type : Progressive
Bits/(Pixel*Frame) : 0.109
Stream size : 741 MiB (86%)
Writing library : x264 core 152 r2851 ba24899
Encoding settings : cabac=1 / ref=5 / deblock=1:0:0 / analyse=0x3:0x113 / me=hex / subme=8 / psy=1 / psy_rd=1.00:0.00 / mixed_ref=1 / me_range=16 / chroma_me=1 / trellis=2 / 8x8dct=1 / cqm=0 / deadzone=21,11 / fast_pskip=1 / chroma_qp_offset=-2 / threads=22 / lookahead_threads=3 / sliced_threads=0 / nr=0 / decimate=1 / interlaced=0 / bluray_compat=0 / constrained_intra=0 / bframes=3 / b_pyramid=2 / b_adapt=1 / b_bias=0 / direct=3 / weightb=1 / open_gop=0 / weightp=2 / keyint=250 / keyint_min=23 / scenecut=40 / intra_refresh=0 / rc_lookahead=50 / rc=crf / mbtree=1 / crf=18.0 / qcomp=0.60 / qpmin=0 / qpmax=69 / qpstep=4 / ip_ratio=1.40 / aq=1:1.00
Default : Yes
Forced : No
Color range : Limited
Matrix coefficients : BT.709

Audio
ID : 2
Format : AC-3
Format/Info : Audio Coding 3
Format settings, Endianness : Big
Codec ID : A_AC3
Duration : 42 min 50 s
Bit rate mode : Constant
Bit rate : 384 kb/s
Channel(s) : 6 channels
Channel positions : Front: L C R, Side: L R, LFE
Sampling rate : 48.0 kHz
Frame rate : 31.250 FPS (1536 SPF)
Bit depth : 16 bits
Compression mode : Lossy
Stream size : 118 MiB (14%)
Service kind : Complete Main
Default : Yes
Forced : No





Mary Kills People S02E03


Mary Kills People S02E03


Mary Kills People S02E03


Mary Kills People S02E03


Mary Kills People S02E03

All episodes