Featured TV Shows


Mary Kills People S03E01

Posted By: Tavaz
720p (HD) / WEBRip IMDb
Mary Kills People S03E01

Mary Kills People S03E01
WEBRip | MKV | 1280x720 | English | H264 @ 2417 kbps | AC-3 @ 384 kbps | 42 min 13 s | 847 MiB
Genre: Drama


Dr. Mary Harris, a single mother and emergency doctor by day, also moonlights as an underground angel of death — helping terminally ill patients who want to die and slip away on their own terms. So far Mary has managed to stay under the radar; but business is booming, and her double life is getting complicated. When her world starts to unravel, Mary realizes she’s going to have to fight dirty if she’s going to stay in the killing game.

MKiPe S03E01 German HD.mkv (846.6 MB)



General
Unique ID : 234159750350040175741388485257048256038 (0xB029870A0A1244E25ADA1A12FEAA6E26)
Complete name : ./MKiPe S03E01 German HD/MKiPe S03E01 German HD.mkv
Format : Matroska
Format version : Version 4 / Version 2
File size : 847 MiB
Duration : 42 min 13 s
Overall bit rate : 2 804 kb/s
Encoded date : UTC 2019-08-15 14:15:02
Writing application : mkvmerge v34.0.0 ('Sight and Seen') 64-bit
Writing library : libebml v1.3.7 + libmatroska v1.5.0

Video
ID : 1
Format : AVC
Format/Info : Advanced Video Codec
Format profile : High@L4.1
Format settings : CABAC / 5 Ref Frames
Format settings, CABAC : Yes
Format settings, RefFrames : 5 frames
Codec ID : V_MPEG4/ISO/AVC
Duration : 42 min 13 s
Bit rate : 2 418 kb/s
Width : 1 280 pixels
Height : 720 pixels
Display aspect ratio : 16:9
Frame rate mode : Constant
Frame rate : 25.000 FPS
Color space : YUV
Chroma subsampling : 4:2:0
Bit depth : 8 bits
Scan type : Progressive
Bits/(Pixel*Frame) : 0.105
Stream size : 730 MiB (86%)
Writing library : x264 core 158 r2984 3759fcb
Encoding settings : cabac=1 / ref=5 / deblock=1:-3:-3 / analyse=0x3:0x113 / me=umh / subme=7 / psy=1 / psy_rd=1.00:0.00 / mixed_ref=1 / me_range=16 / chroma_me=1 / trellis=1 / 8x8dct=1 / cqm=0 / deadzone=21,11 / fast_pskip=0 / chroma_qp_offset=-2 / threads=12 / lookahead_threads=2 / sliced_threads=0 / nr=0 / decimate=1 / interlaced=0 / bluray_compat=0 / constrained_intra=0 / bframes=3 / b_pyramid=2 / b_adapt=1 / b_bias=0 / direct=3 / weightb=1 / open_gop=0 / weightp=2 / keyint=250 / keyint_min=25 / scenecut=40 / intra_refresh=0 / rc_lookahead=50 / rc=crf / mbtree=1 / crf=19.0 / qcomp=0.60 / qpmin=0 / qpmax=69 / qpstep=4 / ip_ratio=1.40 / aq=1:1.00
Language : English
Default : Yes
Forced : No

Audio
ID : 2
Format : AC-3
Format/Info : Audio Coding 3
Format settings, Endianness : Big
Codec ID : A_AC3
Duration : 42 min 12 s
Bit rate mode : Constant
Bit rate : 384 kb/s
Channel(s) : 2 channels
Channel positions : Front: L R
Sampling rate : 48.0 kHz
Frame rate : 31.250 FPS (1536 SPF)
Bit depth : 16 bits
Compression mode : Lossy
Stream size : 116 MiB (14%)
Service kind : Complete Main
Default : Yes
Forced : Yes





Mary Kills People S03E01


Mary Kills People S03E01


Mary Kills People S03E01


Mary Kills People S03E01


Mary Kills People S03E01

All episodes