Featured TV Shows


Masters of Illusion S07E13

Posted By: Tavaz
720p (HD) / WEBRip IMDb
Masters of Illusion S07E13

Masters of Illusion S07E13
WEBRip | MKV | 1280x720 | English | H264 @ 2432 kbps | AAC @ 93 kbps | 20 min 8 s | 364 MiB
Subtitles: English


Amazing magic performed by cutting-edge illusionists and escape artists in front of a live audience with performers in each episode display skills ranging from perplexing interactive mind magic to hilarious comedy routines.

2e5d1c94104d4224a4dc5484a51655be.mkv (363.7 MB)



General
Unique ID : 321085561897764317989667341735082390953 (0xF18ED470316DC58F4820D825B4D4F5A9)
Complete name : ./2e5d1c94104d4224a4dc5484a51655be.mkv
Format : Matroska
Format version : Version 4 / Version 2
File size : 364 MiB
Duration : 20 min 8 s
Overall bit rate : 2 526 kb/s
Encoded date : UTC 2020-09-19 06:28:11
Writing application : mkvmerge v50.0.0 ('Awakenings') 64-bit
Writing library : libebml v1.4.0 + libmatroska v1.6.2

Video
ID : 1
Format : AVC
Format/Info : Advanced Video Codec
Format profile : Main@L3.1
Format settings : CABAC / 3 Ref Frames
Format settings, CABAC : Yes
Format settings, RefFrames : 3 frames
Codec ID : V_MPEG4/ISO/AVC
Duration : 20 min 8 s
Bit rate mode : Constant
Bit rate : 2 432 kb/s
Width : 1 280 pixels
Height : 720 pixels
Display aspect ratio : 16:9
Frame rate mode : Constant
Frame rate : 29.970 (30000/1001) FPS
Color space : YUV
Chroma subsampling : 4:2:0
Bit depth : 8 bits
Scan type : Progressive
Bits/(Pixel*Frame) : 0.088
Stream size : 350 MiB (96%)
Language : English
Default : Yes
Forced : No

Audio
ID : 2
Format : AAC
Format/Info : Advanced Audio Codec
Format profile : LC
Codec ID : A_AAC-2
Duration : 20 min 8 s
Bit rate : 93.6 kb/s
Channel(s) : 2 channels
Channel positions : Front: L R
Sampling rate : 44.1 kHz
Frame rate : 43.066 FPS (1024 SPF)
Compression mode : Lossy
Delay relative to video : -36 ms
Stream size : 13.5 MiB (4%)
Language : English
Default : Yes
Forced : No

Text
ID : 3
Format : UTF-8
Codec ID : S_TEXT/UTF8
Codec ID/Info : UTF-8 Plain Text
Duration : 19 min 52 s
Bit rate : 86 b/s
Count of elements : 466
Stream size : 12.5 KiB (0%)
Language : English
Default : No
Forced : No





Masters of Illusion S07E13


Masters of Illusion S07E13


Masters of Illusion S07E13


Masters of Illusion S07E13


Masters of Illusion S07E13

All episodes