Featured TV Shows


MotherFatherSon S01E02

Posted By: Tavaz
720p (HD) / WEB-DL IMDb
MotherFatherSon S01E02

MotherFatherSon S01E02
WEB-DL | MKV | 1280x720 | English | H264 @ 2721 kbps | E-AC-3 @ 640 kbps | 59 min 31 s | 1.40 GiB
Subtitles: English
Genre: Drama


Max is a charismatic self-made American businessman with media outlets in London and around the world. When the self-destructive lifestyle of his 30 year-old son, Caden, spirals out of control, the devastating consequences threaten the future of the family, its empire, and a country on the brink of change.

fc5de9aed4e04b98803d911adcb4bd6e.mkv (1.4 GB)



General
Unique ID : 163442486389437227139683145733266311326 (0x7AF5E0BC3C6492F87D231EC6F155889E)
Complete name : ./fc5de9aed4e04b98803d911adcb4bd6e.mkv
Format : Matroska
Format version : Version 4 / Version 2
File size : 1.40 GiB
Duration : 59 min 31 s
Overall bit rate : 3 363 kb/s
Encoded date : UTC 2019-08-11 16:04:56
Writing application : mkvmerge v35.0.0 ('All The Love In The World') 64-bit
Writing library : libebml v1.3.9 + libmatroska v1.5.2

Video
ID : 1
Format : AVC
Format/Info : Advanced Video Codec
Format profile : High@L3.1
Format settings : CABAC / 4 Ref Frames
Format settings, CABAC : Yes
Format settings, RefFrames : 4 frames
Codec ID : V_MPEG4/ISO/AVC
Duration : 59 min 31 s
Bit rate mode : Constant
Bit rate : 2 721 kb/s
Nominal bit rate : 6 000 kb/s
Width : 1 280 pixels
Height : 720 pixels
Display aspect ratio : 16:9
Frame rate mode : Constant
Frame rate : 23.976 (24000/1001) FPS
Color space : YUV
Chroma subsampling : 4:2:0
Bit depth : 8 bits
Scan type : Progressive
Bits/(Pixel*Frame) : 0.123
Stream size : 1.13 GiB (81%)
Default : Yes
Forced : No
Color range : Limited
Color primaries : BT.709
Transfer characteristics : BT.709
Matrix coefficients : BT.709

Audio
ID : 2
Format : E-AC-3
Format/Info : Enhanced Audio Coding 3
Format settings, Endianness : Big
Codec ID : A_EAC3
Duration : 59 min 31 s
Bit rate mode : Constant
Bit rate : 640 kb/s
Channel(s) : 6 channels
Channel positions : Front: L C R, Side: L R, LFE
Sampling rate : 48.0 kHz
Frame rate : 187.500 FPS (256 SPF)
Compression mode : Lossy
Stream size : 272 MiB (19%)
Language : English
Service kind : Complete Main
Default : Yes
Forced : No

Text
ID : 3
Format : UTF-8
Codec ID : S_TEXT/UTF8
Codec ID/Info : UTF-8 Plain Text
Duration : 58 min 31 s
Bit rate : 48 b/s
Count of elements : 754
Stream size : 20.6 KiB (0%)
Title : SDH
Language : English
Default : No
Forced : No





MotherFatherSon S01E02


MotherFatherSon S01E02


MotherFatherSon S01E02


MotherFatherSon S01E02


MotherFatherSon S01E02

All episodes