Featured TV Shows


MotherFatherSon S01E08

Posted By: Tavaz
720p (HD) / WEB-DL IMDb
MotherFatherSon S01E08

MotherFatherSon S01E08
WEB-DL | MKV | 1280x720 | English | H264 @ 2761 kbps | E-AC-3 @ 640 kbps | 59 min 4 s | 1.40 GiB
Subtitles: English
Genre: Drama


Max is a charismatic self-made American businessman with media outlets in London and around the world. When the self-destructive lifestyle of his 30 year-old son, Caden, spirals out of control, the devastating consequences threaten the future of the family, its empire, and a country on the brink of change.

5f9b4273669b45e29e38fd0c12986dfb.mkv (1.4 GB)



General
Unique ID : 336349030341639540395703326048223325194 (0xFD0A7788BA6E494B27614540C96D6C0A)
Complete name : ./5f9b4273669b45e29e38fd0c12986dfb.mkv
Format : Matroska
Format version : Version 4 / Version 2
File size : 1.40 GiB
Duration : 59 min 4 s
Overall bit rate : 3 404 kb/s
Encoded date : UTC 2019-08-11 16:25:42
Writing application : mkvmerge v35.0.0 ('All The Love In The World') 64-bit
Writing library : libebml v1.3.9 + libmatroska v1.5.2

Video
ID : 1
Format : AVC
Format/Info : Advanced Video Codec
Format profile : High@L3.1
Format settings : CABAC / 4 Ref Frames
Format settings, CABAC : Yes
Format settings, RefFrames : 4 frames
Codec ID : V_MPEG4/ISO/AVC
Duration : 59 min 4 s
Bit rate mode : Constant
Bit rate : 2 762 kb/s
Nominal bit rate : 6 000 kb/s
Width : 1 280 pixels
Height : 720 pixels
Display aspect ratio : 16:9
Frame rate mode : Constant
Frame rate : 23.976 (24000/1001) FPS
Color space : YUV
Chroma subsampling : 4:2:0
Bit depth : 8 bits
Scan type : Progressive
Bits/(Pixel*Frame) : 0.125
Stream size : 1.14 GiB (81%)
Default : Yes
Forced : No
Color range : Limited
Color primaries : BT.709
Transfer characteristics : BT.709
Matrix coefficients : BT.709

Audio
ID : 2
Format : E-AC-3
Format/Info : Enhanced Audio Coding 3
Format settings, Endianness : Big
Codec ID : A_EAC3
Duration : 59 min 4 s
Bit rate mode : Constant
Bit rate : 640 kb/s
Channel(s) : 6 channels
Channel positions : Front: L C R, Side: L R, LFE
Sampling rate : 48.0 kHz
Frame rate : 187.500 FPS (256 SPF)
Compression mode : Lossy
Stream size : 270 MiB (19%)
Language : English
Service kind : Complete Main
Default : Yes
Forced : No

Text
ID : 3
Format : UTF-8
Codec ID : S_TEXT/UTF8
Codec ID/Info : UTF-8 Plain Text
Duration : 57 min 33 s
Bit rate : 46 b/s
Count of elements : 660
Stream size : 19.7 KiB (0%)
Title : SDH
Language : English
Default : No
Forced : No





MotherFatherSon S01E08


MotherFatherSon S01E08


MotherFatherSon S01E08


MotherFatherSon S01E08


MotherFatherSon S01E08

All episodes