NCIS: Los Angeles S09E15

Posted By: Tavaz
720p (HD) / HDTV IMDb
NCIS: Los Angeles S09E15

NCIS: Los Angeles S09E15
HDTV | MKV | 1280x720 | English | H264 @ 2976 kbps | AC-3 @ 384 kbps | 43 min 25 s | 1.04 GiB
Genre: Crime, Drama, Mystery

The exploits of the Los Angeles–based Office of Special Projects (OSP), an elite division of the Naval Criminal Investigative Service that specializes in undercover assignments.

09487596c9a04bee847c27a06f82cb63.mkv (1.0 GB)



General
Unique ID : 211457460831118026478937614991101615169 (0x9F1539BF78B810D0B6D1B89B57A95C41)
Complete name : ./09487596c9a04bee847c27a06f82cb63.mkv
Format : Matroska
Format version : Version 2
File size : 1.04 GiB
Duration : 43 min 25 s
Overall bit rate : 3 429 kb/s
Encoded date : UTC 2018-03-18 19:39:17
Writing application : mkvmerge v3.1.0 ('Happy up here') built on Jan 19 2010 12:09:24
Writing library : libebml v0.7.9 + libmatroska v0.8.1

Video
ID : 1
Format : AVC
Format/Info : Advanced Video Codec
Format profile : High@L4.1
Format settings : CABAC / 9 Ref Frames
Format settings, CABAC : Yes
Format settings, RefFrames : 9 frames
Codec ID : V_MPEG4/ISO/AVC
Duration : 43 min 25 s
Bit rate : 2 977 kb/s
Width : 1 280 pixels
Height : 720 pixels
Display aspect ratio : 16:9
Frame rate mode : Constant
Frame rate : 23.976 (24000/1001) FPS
Color space : YUV
Chroma subsampling : 4:2:0
Bit depth : 8 bits
Scan type : Progressive
Bits/(Pixel*Frame) : 0.135
Stream size : 924 MiB (87%)
Writing library : x264 core 152 r2851 ba24899
Encoding settings : cabac=1 / ref=9 / deblock=1:-2:-2 / analyse=0x3:0x133 / me=umh / subme=10 / psy=1 / psy_rd=1.00:0.00 / mixed_ref=1 / me_range=32 / chroma_me=1 / trellis=2 / 8x8dct=1 / cqm=0 / deadzone=21,11 / fast_pskip=0 / chroma_qp_offset=-2 / threads=18 / lookahead_threads=2 / sliced_threads=0 / nr=0 / decimate=1 / interlaced=0 / bluray_compat=0 / constrained_intra=0 / bframes=5 / b_pyramid=2 / b_adapt=2 / b_bias=0 / direct=3 / weightb=1 / open_gop=0 / weightp=2 / keyint=250 / keyint_min=23 / scenecut=40 / intra_refresh=0 / rc_lookahead=60 / rc=crf / mbtree=1 / crf=18.0 / qcomp=0.60 / qpmin=0 / qpmax=69 / qpstep=4 / ip_ratio=1.40 / aq=1:1.00
Language : English
Default : No
Forced : No

Audio
ID : 2
Format : AC-3
Format/Info : Audio Coding 3
Format settings, Endianness : Big
Codec ID : A_AC3
Duration : 43 min 25 s
Bit rate mode : Constant
Bit rate : 384 kb/s
Channel(s) : 6 channels
Channel positions : Front: L C R, Side: L R, LFE
Sampling rate : 48.0 kHz
Frame rate : 31.250 FPS (1536 SPF)
Bit depth : 16 bits
Compression mode : Lossy
Stream size : 119 MiB (11%)
Service kind : Complete Main
Default : Yes
Forced : No





NCIS: Los Angeles S09E15


NCIS: Los Angeles S09E15


NCIS: Los Angeles S09E15


NCIS: Los Angeles S09E15


NCIS: Los Angeles S09E15

All episodes