Featured TV Shows


Nazi Mega Weapons S07E03

Posted By: Tavaz
720p (HD) / WEBRip IMDb
Nazi Mega Weapons S07E03

Nazi Mega Weapons S07E03
WEBRip | MKV | 1280x720 | English | H264 @ 3360 kbps | AAC @ 126 kbps | 44 min 28 s | 1.08 GiB
Subtitles: English
Genre: Documentary


In a quest for world domination, the Nazis built some of the biggest and deadliest pieces of military hardware and malevolent technology in history. The six-part series Nazi Mega Weapons recounts Germany’s engagement in World War II from a unique perspective, uncovering the engineering secrets of iconic megastructures, telling the stories of the engineers who designed them and revealing how these structures sparked a technological revolution that changed warfare forever.

With historic footage, recreations of milestone moments and interviews with history, engineering, and military strategy experts, Nazi Mega Weapons recounts the strategic triumphs and wartime blunders of the Third Reich.

917d55ce6a3f4862b79a72591d19f930.mkv (1.1 GB)



General
Unique ID : 82325447630617096050269329102809155363 (0x3DEF4DF23FF40CE2B7A6242243254723)
Complete name : ./917d55ce6a3f4862b79a72591d19f930.mkv
Format : Matroska
Format version : Version 4 / Version 2
File size : 1.08 GiB
Duration : 44 min 28 s
Overall bit rate : 3 481 kb/s
Encoded date : UTC 2019-12-10 05:53:04
Writing application : mkvmerge v40.0.0 ('Old Town Road + Pony') 64-bit
Writing library : libebml v1.3.9 + libmatroska v1.5.2

Video
ID : 2
Format : AVC
Format/Info : Advanced Video Codec
Format profile : High@L3.1
Format settings : CABAC / 2 Ref Frames
Format settings, CABAC : Yes
Format settings, RefFrames : 2 frames
Codec ID : V_MPEG4/ISO/AVC
Duration : 44 min 28 s
Bit rate : 3 360 kb/s
Width : 1 280 pixels
Height : 720 pixels
Display aspect ratio : 16:9
Frame rate mode : Constant
Frame rate : 29.970 FPS
Color space : YUV
Chroma subsampling : 4:2:0
Bit depth : 8 bits
Scan type : Progressive
Bits/(Pixel*Frame) : 0.122
Stream size : 1.04 GiB (96%)
Writing library : x264 core 148 r2579M 73ae2d1
Encoding settings : cabac=1 / ref=2 / deblock=1:0:0 / analyse=0x3:0x113 / me=hex / subme=2 / psy=1 / psy_rd=1.00:0.00 / mixed_ref=0 / me_range=16 / chroma_me=1 / trellis=0 / 8x8dct=1 / cqm=0 / deadzone=21,11 / fast_pskip=1 / chroma_qp_offset=0 / threads=4 / lookahead_threads=1 / sliced_threads=0 / nr=250 / decimate=1 / interlaced=0 / bluray_compat=0 / stitchable=1 / constrained_intra=0 / bframes=0 / weightp=1 / keyint=250 / keyint_min=25 / scenecut=40 / intra_refresh=0 / rc_lookahead=10 / rc=2pass / mbtree=1 / bitrate=3360 / ratetol=1.0 / qcomp=0.60 / qpmin=5 / qpmax=69 / qpstep=4 / cplxblur=20.0 / qblur=0.5 / vbv_maxrate=6720 / vbv_bufsize=3360 / nal_hrd=none / filler=0 / ip_ratio=1.40 / aq=1:1.00
Language : English
Default : Yes
Forced : No
Color range : Limited
Color primaries : BT.709
Transfer characteristics : BT.709
Matrix coefficients : BT.709

Audio
ID : 1
Format : AAC
Format/Info : Advanced Audio Codec
Format profile : HE-AAC / LC
Format settings : Implicit
Codec ID : A_AAC-2
Duration : 44 min 28 s
Bit rate : 127 kb/s
Channel(s) : 2 channels
Channel positions : Front: L R
Sampling rate : 48.0 kHz / 24.0 kHz
Frame rate : 23.438 FPS (1024 SPF)
Compression mode : Lossy
Stream size : 40.3 MiB (4%)
Language : English
Default : Yes
Forced : No

Text
ID : 3
Format : UTF-8
Codec ID : S_TEXT/UTF8
Codec ID/Info : UTF-8 Plain Text
Duration : 44 min 18 s
Bit rate : 123 b/s
Count of elements : 679
Stream size : 39.9 KiB (0%)
Language : English
Default : No
Forced : No





Nazi Mega Weapons S07E03


Nazi Mega Weapons S07E03


Nazi Mega Weapons S07E03


Nazi Mega Weapons S07E03


Nazi Mega Weapons S07E03

All episodes