Featured TV Shows


OK K.O.! Let's Be Heroes S03E02

Posted By: Tavaz
1080p (FullHD) / WEB-DL IMDb
OK K.O.! Let's Be Heroes S03E02

OK K.O.! Let's Be Heroes S03E02
WEB-DL | MKV | 1920x1080 | English | H264 @ 5033 kbps | E-AC-3 @ 224 kbps | 11 min 29 s | 432 MiB
Subtitles: English
Genre: Animation


Animated comedy set in the futuristic year of 201X, where the world is populated by video game and manga-esque characters.

5b1b616ef89f44878555e2b83e00437b.mkv (432.4 MB)



General
Unique ID : 211869710053955245694284409015040825918 (0x9F649F34317710F7C7C007C703A55A3E)
Complete name : ./5b1b616ef89f44878555e2b83e00437b.mkv
Format : Matroska
Format version : Version 4 / Version 2
File size : 432 MiB
Duration : 11 min 29 s
Overall bit rate : 5 260 kb/s
Encoded date : UTC 2020-01-07 22:03:42
Writing application : mkvmerge v31.0.0 ('Dolores In A Shoestand') 64-bit
Writing library : libebml v1.3.6 + libmatroska v1.4.9

Video
ID : 1
Format : AVC
Format/Info : Advanced Video Codec
Format profile : High@L4
Format settings : CABAC / 4 Ref Frames
Format settings, CABAC : Yes
Format settings, RefFrames : 4 frames
Codec ID : V_MPEG4/ISO/AVC
Duration : 11 min 29 s
Bit rate : 5 034 kb/s
Width : 1 920 pixels
Height : 1 080 pixels
Display aspect ratio : 16:9
Frame rate mode : Constant
Frame rate : 23.976 (24000/1001) FPS
Color space : YUV
Chroma subsampling : 4:2:0
Bit depth : 8 bits
Scan type : Progressive
Bits/(Pixel*Frame) : 0.101
Stream size : 414 MiB (96%)
Default : Yes
Forced : No
Color range : Limited
Color primaries : BT.709
Transfer characteristics : BT.709
Matrix coefficients : BT.709

Audio
ID : 2
Format : E-AC-3
Format/Info : Enhanced Audio Coding 3
Format settings, Endianness : Big
Codec ID : A_EAC3
Duration : 11 min 29 s
Bit rate mode : Constant
Bit rate : 224 kb/s
Channel(s) : 2 channels
Channel positions : Front: L R
Sampling rate : 48.0 kHz
Frame rate : 187.500 FPS (256 SPF)
Compression mode : Lossy
Stream size : 18.4 MiB (4%)
Language : English
Service kind : Complete Main
Default : Yes
Forced : No

Text #1
ID : 3
Format : UTF-8
Codec ID : S_TEXT/UTF8
Codec ID/Info : UTF-8 Plain Text
Duration : 11 min 19 s
Bit rate : 88 b/s
Count of elements : 303
Stream size : 7.34 KiB (0%)
Language : English
Default : No
Forced : No

Text #2
ID : 4
Format : UTF-8
Codec ID : S_TEXT/UTF8
Codec ID/Info : UTF-8 Plain Text
Duration : 11 min 26 s
Bit rate : 101 b/s
Count of elements : 356
Stream size : 8.55 KiB (0%)
Title : SDH
Language : English
Default : No
Forced : No





OK K.O.! Let's Be Heroes S03E02


OK K.O.! Let's Be Heroes S03E02


OK K.O.! Let's Be Heroes S03E02


OK K.O.! Let's Be Heroes S03E02


OK K.O.! Let's Be Heroes S03E02

All episodes