Featured TV Shows


PJ Masks S02E10

Posted By: Tavaz
720p (HD) / HDTV IMDb
PJ Masks S02E10

PJ Masks S02E10
HDTV | MKV | 1280x720 | Hebrew | H264 @ 2236 kbps | AAC @ 128 kbps | 23 min 2 s | 390 MiB
Genre: Animation, Family


Connor, Greg and Amaya are normal kids by day, but at night they activate their bracelets, which link into their pajamas and give them fantastic super powers, turning them into their alternate identities: The PJ Masks. The team consists of Catboy (Connor), Gekko (Greg) and Owelette (Amaya). Together, they go on adventures, solve mysteries, and learn valuable lessons.

a0bef86d525c4b17bfbd3058bdb326ad.mkv (390.0 MB)



General
Unique ID : 3956616137463246647112350871026801144 (0x2FA043C9AE00AEF2B327745F03E19F8)
Complete name : ./a0bef86d525c4b17bfbd3058bdb326ad.mkv
Format : Matroska
Format version : Version 4 / Version 2
File size : 390 MiB
Duration : 23 min 2 s
Overall bit rate : 2 367 kb/s
Encoded date : UTC 2019-05-14 16:52:11
Writing application : mkvmerge v29.0.0 ('Like It Or Not') 64-bit
Writing library : libebml v1.3.6 + libmatroska v1.4.9
Writing frontend : StaxRip v2.0.0.0

Video
ID : 1
Format : AVC
Format/Info : Advanced Video Codec
Format profile : High@L4.1
Format settings : CABAC / 5 Ref Frames
Format settings, CABAC : Yes
Format settings, RefFrames : 5 frames
Codec ID : V_MPEG4/ISO/AVC
Duration : 23 min 2 s
Bit rate : 2 237 kb/s
Width : 1 280 pixels
Height : 720 pixels
Display aspect ratio : 16:9
Frame rate mode : Constant
Frame rate : 25.000 FPS
Color space : YUV
Chroma subsampling : 4:2:0
Bit depth : 8 bits
Scan type : Progressive
Bits/(Pixel*Frame) : 0.097
Stream size : 369 MiB (94%)
Writing library : x264 core 157 r2935 545de2f
Encoding settings : cabac=1 / ref=5 / deblock=1:0:0 / analyse=0x3:0x113 / me=hex / subme=8 / psy=1 / psy_rd=1.00:0.00 / mixed_ref=1 / me_range=16 / chroma_me=1 / trellis=2 / 8x8dct=1 / cqm=0 / deadzone=21,11 / fast_pskip=1 / chroma_qp_offset=-2 / threads=12 / lookahead_threads=2 / sliced_threads=0 / nr=0 / decimate=1 / interlaced=0 / bluray_compat=0 / constrained_intra=0 / bframes=3 / b_pyramid=2 / b_adapt=1 / b_bias=0 / direct=3 / weightb=1 / open_gop=0 / weightp=2 / keyint=250 / keyint_min=25 / scenecut=40 / intra_refresh=0 / rc_lookahead=50 / rc=crf / mbtree=1 / crf=18.0 / qcomp=0.60 / qpmin=0 / qpmax=69 / qpstep=4 / ip_ratio=1.40 / aq=1:1.00
Default : Yes
Forced : No
Color range : Limited
Matrix coefficients : BT.709

Audio
ID : 2
Format : AAC
Format/Info : Advanced Audio Codec
Format profile : LC
Codec ID : A_AAC-2
Duration : 23 min 0 s
Bit rate : 128 kb/s
Channel(s) : 2 channels
Channel positions : Front: L R
Sampling rate : 48.0 kHz
Frame rate : 46.875 FPS (1024 SPF)
Compression mode : Lossy
Delay relative to video : 21 ms
Stream size : 21.1 MiB (5%)
Language : Hebrew
Default : Yes
Forced : No





PJ Masks S02E10


PJ Masks S02E10


PJ Masks S02E10


PJ Masks S02E10


PJ Masks S02E10

All episodes