Featured TV Shows


PJ Masks S03E30

Posted By: Tavaz
1080p (FullHD) / WEBRip IMDb
PJ Masks S03E30

PJ Masks S03E30
WEBRip | MKV | 1920x1080 | English | H264 @ 3811 kbps | E-AC-3 @ 256 kbps | 24 min 1 s | 699 MiB
Subtitles: English
Genre: Animation, Family


Connor, Greg and Amaya are normal kids by day, but at night they activate their bracelets, which link into their pajamas and give them fantastic super powers, turning them into their alternate identities: The PJ Masks. The team consists of Catboy (Connor), Gekko (Greg) and Owelette (Amaya). Together, they go on adventures, solve mysteries, and learn valuable lessons.

f24f75b68a4b4185bb185a97b5a87a8f.mkv (699.4 MB)



General
Unique ID : 114471135037273942180883346003241349413 (0x561E56B3509C9BA2E62008315D063125)
Complete name : ./f24f75b68a4b4185bb185a97b5a87a8f.mkv
Format : Matroska
Format version : Version 4 / Version 2
File size : 699 MiB
Duration : 24 min 1 s
Overall bit rate : 4 070 kb/s
Encoded date : UTC 2019-11-09 14:09:49
Writing application : mkvmerge v39.0.0 ('In The Waiting Line') 64-bit
Writing library : libebml v1.3.9 + libmatroska v1.5.2

Video
ID : 1
Format : AVC
Format/Info : Advanced Video Codec
Format profile : High@L4
Format settings : CABAC / 4 Ref Frames
Format settings, CABAC : Yes
Format settings, RefFrames : 4 frames
Codec ID : V_MPEG4/ISO/AVC
Duration : 24 min 1 s
Bit rate : 3 812 kb/s
Width : 1 920 pixels
Height : 1 080 pixels
Display aspect ratio : 16:9
Frame rate mode : Constant
Frame rate : 23.976 (24000/1001) FPS
Color space : YUV
Chroma subsampling : 4:2:0
Bit depth : 8 bits
Scan type : Progressive
Bits/(Pixel*Frame) : 0.077
Stream size : 655 MiB (94%)
Default : Yes
Forced : No

Audio
ID : 2
Format : E-AC-3
Format/Info : Enhanced Audio Coding 3
Format settings, Endianness : Big
Codec ID : A_EAC3
Duration : 24 min 1 s
Bit rate mode : Constant
Bit rate : 256 kb/s
Channel(s) : 6 channels
Channel positions : Front: L C R, Side: L R, LFE
Sampling rate : 48.0 kHz
Frame rate : 187.500 FPS (256 SPF)
Compression mode : Lossy
Stream size : 44.0 MiB (6%)
Language : English
Service kind : Complete Main
Default : Yes
Forced : No

Text
ID : 3
Format : UTF-8
Codec ID : S_TEXT/UTF8
Codec ID/Info : UTF-8 Plain Text
Duration : 23 min 38 s
Bit rate : 75 b/s
Count of elements : 604
Stream size : 13.1 KiB (0%)
Language : English
Default : No
Forced : No





PJ Masks S03E30


PJ Masks S03E30


PJ Masks S03E30


PJ Masks S03E30


PJ Masks S03E30

All episodes