Featured TV Shows


Pennyworth S01E02

Posted By: Tavaz
1080p (FullHD) / WEBRip IMDb
Pennyworth S01E02

Pennyworth S01E02
WEBRip | MKV | 1920x960 | French / English | H264 @ 5602 kbps | E-AC-3 @ 224 kbps | 54 min 18 s | 2.45 GiB
Subtitles: French, English
Genre: Crime, Drama


The origin story of Bruce Wayne’s legendary butler, Alfred Pennyworth, a former British SAS soldier who forms a security company and goes to work with Thomas Wayne, Bruce’s billionaire father, in 1960s London.

ba4c14c077fa459e9ba1aadf4eaebfa6.mkv (2.5 GB)



General
Unique ID : 234529758878978593746510279589299529391 (0xB070C9DE3FA364F4321C7C0BF45CA6AF)
Complete name : ./ba4c14c077fa459e9ba1aadf4eaebfa6.mkv
Format : Matroska
Format version : Version 4 / Version 2
File size : 2.45 GiB
Duration : 54 min 18 s
Overall bit rate : 6 469 kb/s
Encoded date : UTC 2019-12-08 23:20:48
Writing application : mkvmerge v41.0.0 ('Smarra') 64-bit
Writing library : libebml v1.3.9 + libmatroska v1.5.2

Video
ID : 1
Format : AVC
Format/Info : Advanced Video Codec
Format profile : High@L4
Format settings : CABAC / 4 Ref Frames
Format settings, CABAC : Yes
Format settings, RefFrames : 4 frames
Codec ID : V_MPEG4/ISO/AVC
Duration : 54 min 18 s
Bit rate mode : Constant
Bit rate : 5 603 kb/s
Nominal bit rate : 10 000 kb/s
Width : 1 920 pixels
Height : 960 pixels
Display aspect ratio : 2.000
Frame rate mode : Constant
Frame rate : 23.976 (24000/1001) FPS
Color space : YUV
Chroma subsampling : 4:2:0
Bit depth : 8 bits
Scan type : Progressive
Bits/(Pixel*Frame) : 0.127
Stream size : 2.13 GiB (87%)
Default : Yes
Forced : No
Color range : Limited
Color primaries : BT.709
Transfer characteristics : BT.709
Matrix coefficients : BT.709

Audio #1
ID : 2
Format : E-AC-3
Format/Info : Enhanced Audio Coding 3
Format settings, Endianness : Big
Codec ID : A_EAC3
Duration : 54 min 18 s
Bit rate mode : Constant
Bit rate : 224 kb/s
Channel(s) : 2 channels
Channel positions : Front: L R
Sampling rate : 48.0 kHz
Frame rate : 187.500 FPS (256 SPF)
Compression mode : Lossy
Stream size : 87.0 MiB (3%)
Title : French
Language : French
Service kind : Complete Main
Default : Yes
Forced : No

Audio #2
ID : 3
Format : E-AC-3
Format/Info : Enhanced Audio Coding 3
Format settings, Endianness : Big
Codec ID : A_EAC3
Duration : 54 min 18 s
Bit rate mode : Constant
Bit rate : 640 kb/s
Channel(s) : 6 channels
Channel positions : Front: L C R, Side: L R, LFE
Sampling rate : 48.0 kHz
Frame rate : 187.500 FPS (256 SPF)
Compression mode : Lossy
Stream size : 249 MiB (10%)
Title : English
Language : English
Service kind : Complete Main
Default : No
Forced : No

Text #1
ID : 4
Format : UTF-8
Codec ID : S_TEXT/UTF8
Codec ID/Info : UTF-8 Plain Text
Duration : 1 s 585 ms
Bit rate : 85 b/s
Count of elements : 1
Stream size : 17.0 Bytes (0%)
Title : French (Forced)
Language : French
Default : Yes
Forced : Yes

Text #2
ID : 5
Format : UTF-8
Codec ID : S_TEXT/UTF8
Codec ID/Info : UTF-8 Plain Text
Duration : 54 min 11 s
Bit rate : 57 b/s
Count of elements : 837
Stream size : 22.8 KiB (0%)
Title : French
Language : French
Default : No
Forced : No

Text #3
ID : 6
Format : UTF-8
Codec ID : S_TEXT/UTF8
Codec ID/Info : UTF-8 Plain Text
Duration : 53 min 7 s
Bit rate : 63 b/s
Count of elements : 1025
Stream size : 24.7 KiB (0%)
Title : English
Language : English
Default : No
Forced : No





Pennyworth S01E02


Pennyworth S01E02


Pennyworth S01E02


Pennyworth S01E02


Pennyworth S01E02

All episodes