Featured TV Shows


Pennyworth S01E09

Posted By: Tavaz
1080p (FullHD) / WEBRip IMDb
Pennyworth S01E09

Pennyworth S01E09
WEBRip | MKV | 1920x960 | French / English | H264 @ 6330 kbps | E-AC-3 @ 224 kbps | 53 min 11 s | 2.67 GiB
Subtitles: French, English
Genre: Crime, Drama


The origin story of Bruce Wayne’s legendary butler, Alfred Pennyworth, a former British SAS soldier who forms a security company and goes to work with Thomas Wayne, Bruce’s billionaire father, in 1960s London.

dea334e38ab0471dbce527ab4b71b7ce.mkv (2.7 GB)



General
Unique ID : 71755692135332106966071979538797632200 (0x35FBA4C40ACE7B8E8BE434484EB91AC8)
Complete name : ./dea334e38ab0471dbce527ab4b71b7ce.mkv
Format : Matroska
Format version : Version 4 / Version 2
File size : 2.67 GiB
Duration : 53 min 11 s
Overall bit rate : 7 197 kb/s
Encoded date : UTC 2019-12-08 23:33:06
Writing application : mkvmerge v41.0.0 ('Smarra') 64-bit
Writing library : libebml v1.3.9 + libmatroska v1.5.2

Video
ID : 1
Format : AVC
Format/Info : Advanced Video Codec
Format profile : High@L4
Format settings : CABAC / 4 Ref Frames
Format settings, CABAC : Yes
Format settings, RefFrames : 4 frames
Codec ID : V_MPEG4/ISO/AVC
Duration : 53 min 11 s
Bit rate mode : Constant
Bit rate : 6 331 kb/s
Nominal bit rate : 10 000 kb/s
Width : 1 920 pixels
Height : 960 pixels
Display aspect ratio : 2.000
Frame rate mode : Constant
Frame rate : 23.976 (24000/1001) FPS
Color space : YUV
Chroma subsampling : 4:2:0
Bit depth : 8 bits
Scan type : Progressive
Bits/(Pixel*Frame) : 0.143
Stream size : 2.35 GiB (88%)
Default : Yes
Forced : No
Color range : Limited
Color primaries : BT.709
Transfer characteristics : BT.709
Matrix coefficients : BT.709

Audio #1
ID : 2
Format : E-AC-3
Format/Info : Enhanced Audio Coding 3
Format settings, Endianness : Big
Codec ID : A_EAC3
Duration : 53 min 11 s
Bit rate mode : Constant
Bit rate : 224 kb/s
Channel(s) : 2 channels
Channel positions : Front: L R
Sampling rate : 48.0 kHz
Frame rate : 187.500 FPS (256 SPF)
Compression mode : Lossy
Stream size : 85.2 MiB (3%)
Title : French
Language : French
Service kind : Complete Main
Default : Yes
Forced : No

Audio #2
ID : 3
Format : E-AC-3
Format/Info : Enhanced Audio Coding 3
Format settings, Endianness : Big
Codec ID : A_EAC3
Duration : 53 min 11 s
Bit rate mode : Constant
Bit rate : 640 kb/s
Channel(s) : 6 channels
Channel positions : Front: L C R, Side: L R, LFE
Sampling rate : 48.0 kHz
Frame rate : 187.500 FPS (256 SPF)
Compression mode : Lossy
Stream size : 244 MiB (9%)
Title : English
Language : English
Service kind : Complete Main
Default : No
Forced : No

Text #1
ID : 4
Format : UTF-8
Codec ID : S_TEXT/UTF8
Codec ID/Info : UTF-8 Plain Text
Duration : 44 min 2 s
Bit rate : 0 b/s
Count of elements : 6
Stream size : 140 Bytes (0%)
Title : French (Forced)
Language : French
Default : Yes
Forced : Yes

Text #2
ID : 5
Format : UTF-8
Codec ID : S_TEXT/UTF8
Codec ID/Info : UTF-8 Plain Text
Duration : 53 min 5 s
Bit rate : 59 b/s
Count of elements : 805
Stream size : 23.3 KiB (0%)
Title : French
Language : French
Default : No
Forced : No

Text #3
ID : 6
Format : UTF-8
Codec ID : S_TEXT/UTF8
Codec ID/Info : UTF-8 Plain Text
Duration : 52 min 54 s
Bit rate : 70 b/s
Count of elements : 1007
Stream size : 27.5 KiB (0%)
Title : English
Language : English
Default : No
Forced : No





Pennyworth S01E09


Pennyworth S01E09


Pennyworth S01E09


Pennyworth S01E09


Pennyworth S01E09

All episodes