Philip K. Dick's Electric Dreams S01E04

Posted By: Tavaz
SD / WEB-DL IMDb
Philip K. Dick's Electric Dreams S01E04

Philip K. Dick's Electric Dreams S01E04
WEB-DL | MKV | 960x540 | English | H264 @ 1222 kbps | E-AC-3 @ 224 kbps | 50 min 17 s | 521 MiB
Subtitles: English
Genre: Drama

A diverse anthology of ambitious, moving tales inspired by Philip K Dick's short stories.

243697ea78df431e9374cd2b48971f65.mkv (521.1 MB)



General
Unique ID : 323687529778403004208006650647338701467 (0xF383F35BFEF3C88BB2F1BF0BBEE6529B)
Complete name : ./243697ea78df431e9374cd2b48971f65.mkv
Format : Matroska
Format version : Version 4 / Version 2
File size : 521 MiB
Duration : 50 min 17 s
Overall bit rate mode : Variable
Overall bit rate : 1 448 kb/s
Encoded date : UTC 2018-01-14 15:22:06
Writing application : mkvmerge v19.0.0 ('Brave Captain') 64-bit
Writing library : libebml v1.3.5 + libmatroska v1.4.8

Video
ID : 1
Format : AVC
Format/Info : Advanced Video Codec
Format profile : High@L3.1
Format settings : CABAC / 5 Ref Frames
Format settings, CABAC : Yes
Format settings, RefFrames : 5 frames
Codec ID : V_MPEG4/ISO/AVC
Duration : 50 min 17 s
Bit rate mode : Variable
Bit rate : 1 222 kb/s
Maximum bit rate : 2 995 kb/s
Width : 960 pixels
Height : 540 pixels
Display aspect ratio : 16:9
Frame rate mode : Constant
Frame rate : 23.976 (24000/1001) FPS
Color space : YUV
Chroma subsampling : 4:2:0
Bit depth : 8 bits
Scan type : Progressive
Bits/(Pixel*Frame) : 0.098
Stream size : 440 MiB (84%)
Default : Yes
Forced : No
Color range : Limited
Color primaries : BT.709
Transfer characteristics : BT.709
Matrix coefficients : BT.709

Audio
ID : 2
Format : E-AC-3
Format/Info : Enhanced Audio Coding 3
Format settings, Endianness : Big
Codec ID : A_EAC3
Duration : 50 min 17 s
Bit rate mode : Constant
Bit rate : 224 kb/s
Channel(s) : 2 channels
Channel positions : Front: L R
Sampling rate : 48.0 kHz
Frame rate : 187.500 FPS (256 SPF)
Compression mode : Lossy
Stream size : 80.6 MiB (15%)
Language : English
Service kind : Complete Main
Default : Yes
Forced : No

Text #1
ID : 3
Format : UTF-8
Codec ID : S_TEXT/UTF8
Codec ID/Info : UTF-8 Plain Text
Duration : 49 min 10 s
Bit rate : 46 b/s
Count of elements : 682
Stream size : 16.7 KiB (0%)
Language : English
Default : No
Forced : No

Text #2
ID : 4
Format : UTF-8
Codec ID : S_TEXT/UTF8
Codec ID/Info : UTF-8 Plain Text
Duration : 49 min 55 s
Bit rate : 50 b/s
Count of elements : 810
Stream size : 18.4 KiB (0%)
Title : SDH
Language : English
Default : No
Forced : No

Menu
00:00:00.000 : en:Amazon Studios
00:00:05.000 : en:Title Sequence
00:00:54.000 : en:Running out of time
00:02:41.000 : en:A visitor for Morris
00:03:16.000 : en:Seven days earlier at the Morris' house
00:05:22.000 : en:A tour of the Spirit Mill
00:09:58.000 : en:Ed finds Jill lost on the road
00:13:28.000 : en:Ed plans his voyage
00:14:59.000 : en:Sally seeks for advice
00:16:40.000 : en:Sally breaks the rules
00:19:18.000 : en:Jill and Ed meet up for drinks
00:21:46.000 : en:Jill breaks into the Spirit Mill
00:24:35.000 : en:Ed is congratulated at work
00:26:08.000 : en:Sally introduces herself formally to Su
00:26:58.000 : en:Jill makes herself present
00:29:41.000 : en:Ed drives home and finds a visitor
00:32:03.000 : en:Jill asks for Ed's help
00:35:10.000 : en:Sally talks with Ed about Jill
00:36:46.000 : en:Last chance before being recalled
00:41:51.000 : en:She is a Jill
00:45:12.000 : en:A new start
00:48:47.000 : en:End Credits





Philip K. Dick's Electric Dreams S01E04


Philip K. Dick's Electric Dreams S01E04


Philip K. Dick's Electric Dreams S01E04


Philip K. Dick's Electric Dreams S01E04


Philip K. Dick's Electric Dreams S01E04

All episodes