Philip K. Dick's Electric Dreams S01E10

Posted By: Tavaz
SD / WEBRip IMDb
Philip K. Dick's Electric Dreams S01E10

Philip K. Dick's Electric Dreams S01E10
WEBRip | MKV | 720x404 | French | H264 @ 794 kbps | AAC @ 120 kbps | 50 min 17 s | 330 MiB
Subtitles: French
Genre: Drame

Une série d'anthologie qui trouve sa source dans les nouvelles de l'auteur de science-fiction Philip K. Dick, auquel l'on doit des succès comme Blade Runner, Total Recall, Minority Report ou Planète hurlante.

Philip.K.Dicks.Electric.Dreams.S01E09.FRENCH.WEBRip.x264-AMB3R.mkv (232.4 MB)
Philip.K.Dicks.Electric.Dreams.S01E05.FRENCH.WEBRip.x264-AMB3R.mkv (304.8 MB)
Philip.K.Dicks.Electric.Dreams.S01E08.FRENCH.WEBRip.x264-AMB3R.mkv (238.2 MB)
Philip.K.Dicks.Electric.Dreams.S01E07.FRENCH.WEBRip.x264-AMB3R.mkv (264.8 MB)
Philip.K.Dicks.Electric.Dreams.S01E02.FRENCH.WEBRip.x264-AMB3R.mkv (320.8 MB)
Philip.K.Dicks.Electric.Dreams.S01E10.FiNAL.FRENCH.WEBRip.x264-AMB3R.mkv (283.0 MB)
Philip.K.Dicks.Electric.Dreams.S01E04.FRENCH.WEBRip.x264-AMB3R.mkv (330.0 MB)
Philip.K.Dicks.Electric.Dreams.S01E06.FRENCH.WEBRip.x264-AMB3R.mkv (296.7 MB)
philip.k.dicks.electric.dreams.s01e01.french.webrip.x264-amb3r.mkv (217.6 MB)
Philip.K.Dicks.Electric.Dreams.S01E03.FRENCH.WEBRip.x264-AMB3R.mkv (223.7 MB)



General
Unique ID : 194849801493674871388174203039652883485 (0x9296B4EC9D6DD3B093966868E93DAC1D)
Complete name : ./Philip.K.Dicks.Electric.Dreams.S01E04.FRENCH.WEBRip.x264-AMB3R.mkv
Format : Matroska
Format version : Version 4 / Version 2
File size : 330 MiB
Duration : 50 min 17 s
Overall bit rate : 917 kb/s
Encoded date : UTC 2018-01-12 15:24:31
Writing application : mkvmerge v19.0.0 ('Brave Captain') 64-bit
Writing library : libebml v1.3.5 + libmatroska v1.4.8

Video
ID : 1
Format : AVC
Format/Info : Advanced Video Codec
Format profile : High@L3.1
Format settings : CABAC / 5 Ref Frames
Format settings, CABAC : Yes
Format settings, RefFrames : 5 frames
Codec ID : V_MPEG4/ISO/AVC
Duration : 50 min 17 s
Bit rate : 795 kb/s
Width : 720 pixels
Height : 404 pixels
Display aspect ratio : 16:9
Frame rate mode : Constant
Frame rate : 23.976 (24000/1001) FPS
Color space : YUV
Chroma subsampling : 4:2:0
Bit depth : 8 bits
Scan type : Progressive
Bits/(Pixel*Frame) : 0.114
Stream size : 286 MiB (87%)
Writing library : x264 core 155 r2893 b00bcaf
Encoding settings : cabac=1 / ref=5 / deblock=1:-3:-3 / analyse=0x3:0x112 / me=umh / subme=8 / psy=1 / psy_rd=1.00:0.00 / mixed_ref=1 / me_range=32 / chroma_me=1 / trellis=2 / 8x8dct=1 / cqm=0 / deadzone=21,11 / fast_pskip=0 / chroma_qp_offset=-2 / threads=12 / lookahead_threads=3 / sliced_threads=0 / nr=0 / decimate=1 / interlaced=0 / bluray_compat=0 / constrained_intra=0 / bframes=5 / b_pyramid=2 / b_adapt=2 / b_bias=0 / direct=3 / weightb=1 / open_gop=0 / weightp=2 / keyint=240 / keyint_min=23 / scenecut=40 / intra_refresh=0 / rc_lookahead=50 / rc=crf / mbtree=1 / crf=19.0 / qcomp=0.60 / qpmin=0 / qpmax=69 / qpstep=4 / vbv_maxrate=17500 / vbv_bufsize=17500 / crf_max=0.0 / nal_hrd=none / filler=0 / ip_ratio=1.40 / aq=1:1.00
Default : Yes
Forced : No
Color range : Limited
Color primaries : BT.709
Transfer characteristics : BT.709
Matrix coefficients : BT.709

Audio
ID : 2
Format : AAC
Format/Info : Advanced Audio Codec
Format profile : LC
Codec ID : A_AAC-2
Duration : 50 min 17 s
Bit rate : 120 kb/s
Channel(s) : 2 channels
Channel positions : Front: L R
Sampling rate : 48.0 kHz
Frame rate : 46.875 FPS (1024 SPF)
Compression mode : Lossy
Delay relative to video : 9 ms
Stream size : 43.3 MiB (13%)
Language : French
Default : Yes
Forced : No

Text
ID : 3
Format : UTF-8
Codec ID : S_TEXT/UTF8
Codec ID/Info : UTF-8 Plain Text
Duration : 47 min 39 s
Bit rate : 0 b/s
Count of elements : 6
Stream size : 148 Bytes (0%)
Title : French (Forced)
Language : French
Default : Yes
Forced : Yes





Philip K. Dick's Electric Dreams S01E10


Philip K. Dick's Electric Dreams S01E10


Philip K. Dick's Electric Dreams S01E10


Philip K. Dick's Electric Dreams S01E10


Philip K. Dick's Electric Dreams S01E10

All episodes