Featured TV Shows


Poldark S05E05

Posted By: Tavaz
1080p (FullHD) / BDRip IMDb
Poldark S05E05

Poldark S05E05
WEB-DL | MKV | 1920x1080 | German / English | H264 @ 9256 kbps | AC-3 @ 384 kbps | 58 min 6 s | 4.17 GiB
Genre: Drama


Als Ross Poldark (Aidan Turner) aus dem amerikanischen Unabhängigkeitskrieg in seine Heimat Cornwall zurückkehrt, muss er feststellen, dass nichts mehr so ist wie früher: Sein Vater ist tot, der Zinnminenbetrieb der Familie wurde längst geschlossen und seine Geliebte hat sich mit seinem Cousin verlobt.

Poldark.2015.S05E05.German.DL.DUBBED.1080p.BluRay.x264.PROPER-TVNATiON.mkv (4.2 GB)



General
Unique ID : 181889337961310149554722254167649854853 (0x88D69CBCB515331196AAD515ABD8A585)
Complete name : ./Poldark.2015.S05E05.German.DL.DUBBED.1080p.BluRay.x264.PROPER-TVNATiON.mkv
Format : Matroska
Format version : Version 4 / Version 2
File size : 4.17 GiB
Duration : 58 min 6 s
Overall bit rate : 10.3 Mb/s
Encoded date : UTC 2019-11-16 11:54:19
Writing application : mkvmerge v8.2.0 ('World of Adventure') 64bit
Writing library : libebml v1.3.1 + libmatroska v1.4.2

Video
ID : 1
Format : AVC
Format/Info : Advanced Video Codec
Format profile : High@L4.1
Format settings : CABAC / 4 Ref Frames
Format settings, CABAC : Yes
Format settings, RefFrames : 4 frames
Codec ID : V_MPEG4/ISO/AVC
Duration : 58 min 6 s
Bit rate : 9 256 kb/s
Width : 1 920 pixels
Height : 1 080 pixels
Display aspect ratio : 16:9
Frame rate mode : Constant
Frame rate : 25.000 FPS
Color space : YUV
Chroma subsampling : 4:2:0
Bit depth : 8 bits
Scan type : Progressive
Bits/(Pixel*Frame) : 0.179
Stream size : 3.75 GiB (90%)
Writing library : x264 core 158 r2984 3759fcb
Encoding settings : cabac=1 / ref=4 / deblock=1:-3:-3 / analyse=0x3:0x113 / me=umh / subme=8 / psy=1 / psy_rd=1.00:0.00 / mixed_ref=1 / me_range=32 / chroma_me=1 / trellis=2 / 8x8dct=1 / cqm=0 / deadzone=21,11 / fast_pskip=1 / chroma_qp_offset=-2 / threads=18 / lookahead_threads=3 / sliced_threads=0 / nr=0 / decimate=1 / interlaced=0 / bluray_compat=0 / constrained_intra=0 / bframes=3 / b_pyramid=2 / b_adapt=2 / b_bias=0 / direct=3 / weightb=1 / open_gop=0 / weightp=2 / keyint=250 / keyint_min=25 / scenecut=40 / intra_refresh=0 / rc_lookahead=50 / rc=2pass / mbtree=1 / bitrate=9256 / ratetol=1.0 / qcomp=0.60 / qpmin=0 / qpmax=69 / qpstep=4 / cplxblur=20.0 / qblur=0.5 / ip_ratio=1.40 / aq=3:0.80
Default : Yes
Forced : No

Audio #1
ID : 2
Format : AC-3
Format/Info : Audio Coding 3
Format settings, Endianness : Big
Codec ID : A_AC3
Duration : 58 min 6 s
Bit rate mode : Constant
Bit rate : 384 kb/s
Channel(s) : 6 channels
Channel positions : Front: L C R, Side: L R, LFE
Sampling rate : 48.0 kHz
Frame rate : 31.250 FPS (1536 SPF)
Bit depth : 16 bits
Compression mode : Lossy
Stream size : 160 MiB (4%)
Language : German
Service kind : Complete Main
Default : Yes
Forced : No

Audio #2
ID : 3
Format : AC-3
Format/Info : Audio Coding 3
Format settings, Endianness : Big
Codec ID : A_AC3
Duration : 58 min 6 s
Bit rate mode : Constant
Bit rate : 640 kb/s
Channel(s) : 6 channels
Channel positions : Front: L C R, Side: L R, LFE
Sampling rate : 48.0 kHz
Frame rate : 31.250 FPS (1536 SPF)
Bit depth : 16 bits
Compression mode : Lossy
Stream size : 266 MiB (6%)
Language : English
Service kind : Complete Main
Default : No
Forced : No





Poldark S05E05


Poldark S05E05


Poldark S05E05


Poldark S05E05


Poldark S05E05

All episodes