Featured TV Shows


Raised by Wolves S01E09

Posted By: Tavaz
720p (HD) / WEB-DL IMDb
Raised by Wolves S01E09

Raised by Wolves S01E09
WEB-DL | MKV | 1280x720 | H264 @ 3322 kbps | AC-3 @ 384 kbps | 44 min 33 s | 1.18 GiB
Genre: Drama


After Earth is ravaged by a great religious war, an atheistic android architect sends two of his creations, Mother and Father, to start a peaceful, godless colony on the planet Kepler-22b. Their treacherous task is jeopardized by the arrival of the Mithraic, a deeply devout religious order of surviving humans.

a0118e4f98254c0ba81404d519bddbd7.mkv (1.2 GB)



General
Unique ID : 334627760539161809755124925056864185956 (0xFBBEF66174BFBA65FC377E4B527B6E64)
Complete name : ./a0118e4f98254c0ba81404d519bddbd7.mkv
Format : Matroska
Format version : Version 4 / Version 2
File size : 1.18 GiB
Duration : 44 min 33 s
Overall bit rate mode : Variable
Overall bit rate : 3 782 kb/s
Writing application : Lavf58.42.100
Writing library : Lavf58.42.100
ErrorDetectionType : Per level 1

Video
ID : 1
Format : AVC
Format/Info : Advanced Video Codec
Format profile : Main@L3.1
Format settings : CABAC / 4 Ref Frames
Format settings, CABAC : Yes
Format settings, RefFrames : 4 frames
Codec ID : V_MPEG4/ISO/AVC
Duration : 44 min 33 s
Bit rate mode : Variable
Bit rate : 3 323 kb/s
Maximum bit rate : 5 100 kb/s
Width : 1 280 pixels
Height : 720 pixels
Display aspect ratio : 16:9
Frame rate mode : Constant
Frame rate : 23.976 (24000/1001) FPS
Color space : YUV
Chroma subsampling : 4:2:0
Bit depth : 8 bits
Scan type : Progressive
Bits/(Pixel*Frame) : 0.150
Stream size : 1.03 GiB (88%)
Default : Yes
Forced : No
Color range : Limited
Color primaries : BT.709
Transfer characteristics : BT.709
Matrix coefficients : BT.709

Audio
ID : 2
Format : AC-3
Format/Info : Audio Coding 3
Format settings, Endianness : Big
Codec ID : A_AC3
Duration : 44 min 33 s
Bit rate mode : Constant
Bit rate : 384 kb/s
Channel(s) : 6 channels
Channel positions : Front: L C R, Side: L R, LFE
Sampling rate : 48.0 kHz
Frame rate : 31.250 FPS (1536 SPF)
Bit depth : 16 bits
Compression mode : Lossy
Stream size : 122 MiB (10%)
Service kind : Complete Main
Default : Yes
Forced : No

Text
ID : 3
Format : ASS
Codec ID : S_TEXT/ASS
Codec ID/Info : Advanced Sub Station Alpha
Duration : 44 min 30 s
Compression mode : Lossless
Writing library : Lavc58.80.100 ssa
Default : No
Forced : No

Menu





Raised by Wolves S01E09


Raised by Wolves S01E09


Raised by Wolves S01E09


Raised by Wolves S01E09


Raised by Wolves S01E09

All episodes