Please register here if you want to download anything!

If domain in your address bar is different from the list below
PLEASE LEAVE THAT SITE IMMEDIATELY
❗IT'S A DANGEROUS FAKE❗



Spicy Magazines for Men! ;-)

Featured TV Shows


SEAL Team S02E18

Posted By: Tavaz
1080p (FullHD) / HDTV IMDb
SEAL Team S02E18

SEAL Team S02E18
HDTV | MKV | 1920x1076 | English | H264 @ 8072 kbps | AC-3 @ 384 kbps | 1 h 16 min | 4.51 GiB
Subtitles: English
Genre: Drama


The lives of the elite Navy Seals as they train, plan and execute the most dangerous, high-stakes missions our country can ask.

seal.team.s02e18.1080p.hdtv.x264-lucidtv.mkv (4.5 GB)



General
Unique ID : 202888375153548771265891731358071970145 (0x98A2E13484E8F3F50056AC5EDF58D961)
Complete name : ./seal.team.s02e18.1080p.hdtv.x264-lucidtv.mkv
Format : Matroska
Format version : Version 4 / Version 2
File size : 4.51 GiB
Duration : 1 h 16 min
Overall bit rate : 8 459 kb/s
Encoded date : UTC 2019-04-18 04:38:59
Writing application : mkvmerge v30.1.0 ('Forever And More') 64-bit
Writing library : libebml v1.3.6 + libmatroska v1.4.9

Video
ID : 1
Format : AVC
Format/Info : Advanced Video Codec
Format profile : High@L4.1
Format settings : CABAC / 4 Ref Frames
Format settings, CABAC : Yes
Format settings, RefFrames : 4 frames
Codec ID : V_MPEG4/ISO/AVC
Duration : 1 h 16 min
Bit rate : 8 073 kb/s
Width : 1 920 pixels
Height : 1 076 pixels
Display aspect ratio : 16:9
Frame rate mode : Constant
Frame rate : 23.976 (23976/1000) FPS
Original frame rate : 23.976 (24000/1001) FPS
Color space : YUV
Chroma subsampling : 4:2:0
Bit depth : 8 bits
Scan type : Progressive
Bits/(Pixel*Frame) : 0.163
Stream size : 4.30 GiB (95%)
Writing library : x264 core 157 r2969 d4099dd
Encoding settings : cabac=1 / ref=4 / deblock=1:0:0 / analyse=0x3:0x113 / me=hex / subme=8 / psy=1 / psy_rd=1.00:0.00 / mixed_ref=1 / me_range=16 / chroma_me=1 / trellis=2 / 8x8dct=1 / cqm=0 / deadzone=21,11 / fast_pskip=1 / chroma_qp_offset=-2 / threads=30 / lookahead_threads=5 / sliced_threads=0 / nr=0 / decimate=1 / interlaced=0 / bluray_compat=0 / constrained_intra=0 / bframes=3 / b_pyramid=2 / b_adapt=1 / b_bias=0 / direct=3 / weightb=1 / open_gop=0 / weightp=2 / keyint=250 / keyint_min=23 / scenecut=40 / intra_refresh=0 / rc_lookahead=50 / rc=crf / mbtree=1 / crf=17.0 / qcomp=0.60 / qpmin=0 / qpmax=69 / qpstep=4 / ip_ratio=1.40 / aq=1:1.00
Language : English
Default : Yes
Forced : No

Audio
ID : 2
Format : AC-3
Format/Info : Audio Coding 3
Format settings, Endianness : Big
Codec ID : A_AC3
Duration : 1 h 16 min
Bit rate mode : Constant
Bit rate : 384 kb/s
Channel(s) : 6 channels
Channel positions : Front: L C R, Side: L R, LFE
Sampling rate : 48.0 kHz
Frame rate : 31.250 FPS (1536 SPF)
Bit depth : 16 bits
Compression mode : Lossy
Stream size : 210 MiB (5%)
Language : English
Service kind : Complete Main
Default : Yes
Forced : No

Text
ID : 3
Format : UTF-8
Codec ID : S_TEXT/UTF8
Codec ID/Info : UTF-8 Plain Text
Duration : 1 h 15 min
Bit rate : 118 b/s
Count of elements : 1569
Stream size : 65.2 KiB (0%)
Language : English
Default : No
Forced : No





SEAL Team S02E18


SEAL Team S02E18


SEAL Team S02E18


SEAL Team S02E18


SEAL Team S02E18

All episodes