Featured TV Shows


SEAL Team S02E22

Posted By: Tavaz
1080p (FullHD) / WEBRip IMDb
SEAL Team S02E22

SEAL Team S02E22
WEBRip | MKV | 1920x1080 | English | H264 @ 11198 kbps | E-AC-3 @ 640 kbps | 43 min 39 s | 3.61 GiB
Subtitles: English
Genre: Drama


The lives of the elite Navy Seals as they train, plan and execute the most dangerous, high-stakes missions our country can ask.

b6d2f45615ed45ac9fdc8669d46bae93.mkv (3.6 GB)



General
Unique ID : 100059733907819946236736023629568767696 (0x4B46CDC4446374EAA1DABDB1B12D76D0)
Complete name : ./b6d2f45615ed45ac9fdc8669d46bae93.mkv
Format : Matroska
Format version : Version 4 / Version 2
File size : 3.61 GiB
Duration : 43 min 39 s
Overall bit rate : 11.8 Mb/s
Encoded date : UTC 2019-05-23 06:00:58
Writing application : mkvmerge v33.1.0 ('Primrose') 64-bit
Writing library : libebml v1.3.7 + libmatroska v1.5.0

Video
ID : 1
Format : AVC
Format/Info : Advanced Video Codec
Format profile : High@L4
Format settings : CABAC / 4 Ref Frames
Format settings, CABAC : Yes
Format settings, RefFrames : 4 frames
Codec ID : V_MPEG4/ISO/AVC
Duration : 43 min 39 s
Bit rate : 11.2 Mb/s
Width : 1 920 pixels
Height : 1 080 pixels
Display aspect ratio : 16:9
Frame rate mode : Constant
Frame rate : 24.000 FPS
Color space : YUV
Chroma subsampling : 4:2:0
Bit depth : 8 bits
Scan type : Progressive
Bits/(Pixel*Frame) : 0.225
Stream size : 3.41 GiB (95%)
Language : English
Default : Yes
Forced : No
Color range : Limited
Color primaries : BT.709
Transfer characteristics : BT.709
Matrix coefficients : BT.709

Audio
ID : 2
Format : E-AC-3
Format/Info : Enhanced Audio Coding 3
Format settings, Endianness : Big
Codec ID : A_EAC3
Duration : 43 min 39 s
Bit rate mode : Constant
Bit rate : 640 kb/s
Channel(s) : 6 channels
Channel positions : Front: L C R, Side: L R, LFE
Sampling rate : 48.0 kHz
Frame rate : 187.500 FPS (256 SPF)
Compression mode : Lossy
Stream size : 200 MiB (5%)
Language : English
Service kind : Complete Main
Default : Yes
Forced : No

Text
ID : 3
Format : UTF-8
Codec ID : S_TEXT/UTF8
Codec ID/Info : UTF-8 Plain Text
Duration : 43 min 4 s
Bit rate : 66 b/s
Count of elements : 698
Stream size : 20.8 KiB (0%)
Language : English
Default : No
Forced : No





SEAL Team S02E22


SEAL Team S02E22


SEAL Team S02E22


SEAL Team S02E22


SEAL Team S02E22

All episodes