Featured TV Shows


SEAL Team S03E05

Posted By: Tavaz
720p (HD) / WEBRip IMDb
SEAL Team S03E05

SEAL Team S03E05
WEBRip | MKV | 1280x720 | English | H264 @ 2631 kbps | E-AC-3 @ 256 kbps | 40 min 47 s | 843 MiB
Subtitles: English
Genre: Drama


The lives of the elite Navy Seals as they train, plan and execute the most dangerous, high-stakes missions our country can ask.

1f79542915bc4f8ab2533e55a65c361a.mkv (842.8 MB)



General
Unique ID : 178347146453934726863123506089577763202 (0x862C693652E243D05BFEC4EF66BD5182)
Complete name : ./1f79542915bc4f8ab2533e55a65c361a.mkv
Format : Matroska
Format version : Version 4 / Version 2
File size : 843 MiB
Duration : 40 min 47 s
Overall bit rate : 2 889 kb/s
Encoded date : UTC 2019-10-31 01:07:18
Writing application : mkvmerge v38.0.0 ('The Silent Type') 64-bit
Writing library : libebml v1.3.9 + libmatroska v1.5.2

Video
ID : 1
Format : AVC
Format/Info : Advanced Video Codec
Format profile : High@L3.1
Format settings : CABAC / 5 Ref Frames
Format settings, CABAC : Yes
Format settings, RefFrames : 5 frames
Codec ID : V_MPEG4/ISO/AVC
Duration : 40 min 46 s
Bit rate : 2 631 kb/s
Width : 1 280 pixels
Height : 720 pixels
Display aspect ratio : 16:9
Frame rate mode : Constant
Frame rate : 23.976 (24000/1001) FPS
Color space : YUV
Chroma subsampling : 4:2:0
Bit depth : 8 bits
Scan type : Progressive
Bits/(Pixel*Frame) : 0.119
Stream size : 768 MiB (91%)
Default : Yes
Forced : No

Audio
ID : 2
Format : E-AC-3
Format/Info : Enhanced Audio Coding 3
Format settings, Endianness : Big
Codec ID : A_EAC3
Duration : 40 min 47 s
Bit rate mode : Constant
Bit rate : 256 kb/s
Channel(s) : 6 channels
Channel positions : Front: L C R, Side: L R, LFE
Sampling rate : 48.0 kHz
Frame rate : 187.500 FPS (256 SPF)
Compression mode : Lossy
Stream size : 74.7 MiB (9%)
Service kind : Complete Main
Default : Yes
Forced : No

Text
ID : 3
Format : UTF-8
Codec ID : S_TEXT/UTF8
Codec ID/Info : UTF-8 Plain Text
Duration : 40 min 6 s
Bit rate : 99 b/s
Count of elements : 873
Stream size : 29.1 KiB (0%)
Language : English
Default : No
Forced : No





SEAL Team S03E05


SEAL Team S03E05


SEAL Team S03E05


SEAL Team S03E05


SEAL Team S03E05

All episodes