Featured TV Shows


School of Rock S03E20

Posted By: Tavaz
720p (HD) / HDTV IMDb
School of Rock S03E20

School of Rock S03E20
HDTV | MKV | 1280x720 | English | H264 @ 3563 kbps | AC-3 @ 384 kbps | 21 min 11 s | 610 MiB
Subtitles: English
Genre: Comedy, Family

A group of rule-abiding prep school students – Zack, Lawrence, Freddy, Summer and Tomika – learn to take risks and reach new heights thanks to substitute teacher Dewey Finn, a down-on-his-luck musician who uses the language of rock ‘n’ roll to inspire his class to form a secret band. Throughout the school year, these middle-school classmates find themselves navigating relationships, discovering their unknown talents and learning lessons on loyalty and friendships.

6ede3132e5ff4fd18edbcc853cac6b23.mkv (610.3 MB)



General
Complete name : ./6ede3132e5ff4fd18edbcc853cac6b23.mkv
Format : Matroska
Format version : Version 4 / Version 2
File size : 610 MiB
Duration : 21 min 11 s
Overall bit rate : 4 028 kb/s
Movie name : School Of Rock S03E20 I Love Rock And Roll Part Two
Writing application : https://www.youtube.com/watch?v=CfDxeOFpp4M
Writing library : Gumi - Ten Faced
Tool : Multi Group Release Encoder v17.2

Video
ID : 1
Format : AVC
Format/Info : Advanced Video Codec
Format profile : High@L4.1
Format settings : CABAC / 5 Ref Frames
Format settings, CABAC : Yes
Format settings, RefFrames : 5 frames
Codec ID : V_MPEG4/ISO/AVC
Duration : 21 min 11 s
Bit rate : 3 564 kb/s
Width : 1 280 pixels
Height : 720 pixels
Display aspect ratio : 16:9
Frame rate mode : Constant
Frame rate : 25.000 FPS
Color space : YUV
Chroma subsampling : 4:2:0
Bit depth : 8 bits
Scan type : Progressive
Bits/(Pixel*Frame) : 0.155
Stream size : 540 MiB (88%)
Writing library : x264 core 155 r2901 7d0ff22
Encoding settings : cabac=1 / ref=5 / deblock=1:0:0 / analyse=0x3:0x113 / me=hex / subme=8 / psy=1 / psy_rd=1.00:0.00 / mixed_ref=1 / me_range=16 / chroma_me=1 / trellis=2 / 8x8dct=1 / cqm=0 / deadzone=21,11 / fast_pskip=1 / chroma_qp_offset=-2 / threads=12 / lookahead_threads=2 / sliced_threads=0 / nr=0 / decimate=1 / interlaced=0 / bluray_compat=0 / constrained_intra=0 / bframes=3 / b_pyramid=2 / b_adapt=1 / b_bias=0 / direct=3 / weightb=1 / open_gop=0 / weightp=2 / keyint=250 / keyint_min=25 / scenecut=40 / intra_refresh=0 / rc_lookahead=50 / rc=crf / mbtree=1 / crf=18.0 / qcomp=0.60 / qpmin=0 / qpmax=69 / qpstep=4 / ip_ratio=1.40 / aq=1:1.00
Language : English
Default : Yes
Forced : No
Color range : Limited
Matrix coefficients : BT.709

Audio
ID : 2
Format : AC-3
Format/Info : Audio Coding 3
Format settings, Endianness : Big
Codec ID : A_AC3
Duration : 21 min 11 s
Bit rate mode : Constant
Bit rate : 384 kb/s
Channel(s) : 6 channels
Channel positions : Front: L C R, Side: L R, LFE
Sampling rate : 48.0 kHz
Frame rate : 31.250 FPS (1536 SPF)
Bit depth : 16 bits
Compression mode : Lossy
Stream size : 58.2 MiB (10%)
Language : English
Service kind : Complete Main
Default : Yes
Forced : No

Text
ID : 3
Format : UTF-8
Codec ID : S_TEXT/UTF8
Codec ID/Info : UTF-8 Plain Text
Language : English
Default : No
Forced : No





School of Rock S03E20


School of Rock S03E20


School of Rock S03E20


School of Rock S03E20


School of Rock S03E20

All episodes