Featured TV Shows


YOU S01E11

Posted By: Tavaz
1080p (FullHD) / WEBRip IMDb
YOU S01E11

YOU S01E11
WEB-DL | MKV | 1440x1080 | English | H264 @ 14750 kbps | E-AC-3 @ 224 kbps | 21 min 54 s | 2.29 GiB
Subtitles: English
Genre: Crime, Drama


When a brilliant bookstore manager crosses paths with an aspiring writer, he uses the internet and social media to gather the most intimate of details and get close to her. A charming and awkward crush quickly becomes obsession as he quietly and strategically removes every obstacle - and person - in his way.

b2c7b30334d640d38446a1b43f564bd5.mkv (2.3 GB)



General
Unique ID : 212583674724703961752773827050649298700 (0x9FEE206141B235BF4A4B0FAE72EA270C)
Complete name : ./b2c7b30334d640d38446a1b43f564bd5.mkv
Format : Matroska
Format version : Version 4 / Version 2
File size : 2.29 GiB
Duration : 21 min 54 s
Overall bit rate : 15.0 Mb/s
Encoded date : UTC 2019-09-06 00:25:20
Writing application : mkvmerge v25.0.0 ('Prog Noir') 32-bit
Writing library : libebml v1.3.6 + libmatroska v1.4.9

Video
ID : 1
Format : AVC
Format/Info : Advanced Video Codec
Format profile : High@L4
Format settings : CABAC / 4 Ref Frames
Format settings, CABAC : Yes
Format settings, RefFrames : 4 frames
Codec ID : V_MPEG4/ISO/AVC
Duration : 21 min 54 s
Bit rate : 14.8 Mb/s
Width : 1 440 pixels
Height : 1 080 pixels
Display aspect ratio : 4:3
Frame rate mode : Constant
Frame rate : 23.976 (24000/1001) FPS
Color space : YUV
Chroma subsampling : 4:2:0
Bit depth : 8 bits
Scan type : Progressive
Bits/(Pixel*Frame) : 0.396
Stream size : 2.26 GiB (98%)
Default : Yes
Forced : No
Color range : Limited
Color primaries : BT.709
Transfer characteristics : BT.709
Matrix coefficients : BT.709

Audio
ID : 2
Format : E-AC-3
Format/Info : Enhanced Audio Coding 3
Format settings, Endianness : Big
Codec ID : A_EAC3
Duration : 21 min 54 s
Bit rate mode : Constant
Bit rate : 224 kb/s
Channel(s) : 2 channels
Channel positions : Front: L R
Sampling rate : 48.0 kHz
Frame rate : 187.500 FPS (256 SPF)
Compression mode : Lossy
Stream size : 35.1 MiB (1%)
Title : English
Language : English
Service kind : Complete Main
Default : Yes
Forced : No

Text #1
ID : 3
Format : UTF-8
Codec ID : S_TEXT/UTF8
Codec ID/Info : UTF-8 Plain Text
Duration : 21 min 47 s
Bit rate : 66 b/s
Count of elements : 351
Stream size : 10.6 KiB (0%)
Title : English
Language : English
Default : No
Forced : No

Text #2
ID : 4
Format : UTF-8
Codec ID : S_TEXT/UTF8
Codec ID/Info : UTF-8 Plain Text
Duration : 21 min 52 s
Bit rate : 71 b/s
Count of elements : 394
Stream size : 11.4 KiB (0%)
Title : English [SDH]
Language : English
Default : No
Forced : No





YOU S01E11


YOU S01E11


YOU S01E11


YOU S01E11


YOU S01E11

All episodes