Featured TV Shows


Sesame Street S49E31

Posted By: Tavaz
720p (HD) / WEBRip IMDb
Sesame Street S49E31

Sesame Street S49E31
WEBRip | MKV | 1280x720 | English | H264 @ 4923 kbps | E-AC-3 @ 224 kbps | 26 min 14 s | 966 MiB
Subtitles: English
Genre: Animation, Comedy, Family


Sesame Street is a long-running American children's television series created by Joan Ganz Cooney and Lloyd Morrisett. The program is known for its educational content, and creativity communicated through the use of Jim Henson's Muppets, animation, short films, humor, and cultural references. The series premiered on stations on November 10, 1969 to positive reviews, some controversy, and high ratings.

Sesame.Street.S49E31.Grocery.Games.720p.AMZN.WEB-DL.DDP2.0.H.264-monkee.mkv (966.3 MB)



General
Unique ID : 249734628209509042057629684493518114419 (0xBBE123CDFD7C507CAC0ACD403D3C0E73)
Complete name : ./Sesame.Street.S49E31.Grocery.Games.720p.AMZN.WEB-DL.DDP2.0.H.264-monkee.mkv
Format : Matroska
Format version : Version 4 / Version 2
File size : 966 MiB
Duration : 26 min 14 s
Overall bit rate : 5 150 kb/s
Encoded date : UTC 2019-06-15 20:14:39
Writing application : mkvmerge v13.0.0 ('The Juggler') 64bit
Writing library : libebml v1.3.4 + libmatroska v1.4.5

Video
ID : 1
Format : AVC
Format/Info : Advanced Video Codec
Format profile : High@L3.1
Format settings : CABAC / 4 Ref Frames
Format settings, CABAC : Yes
Format settings, RefFrames : 4 frames
Codec ID : V_MPEG4/ISO/AVC
Duration : 26 min 14 s
Bit rate mode : Constant
Bit rate : 4 924 kb/s
Nominal bit rate : 6 000 kb/s
Width : 1 280 pixels
Height : 720 pixels
Display aspect ratio : 16:9
Frame rate mode : Constant
Frame rate : 29.970 (30000/1001) FPS
Color space : YUV
Chroma subsampling : 4:2:0
Bit depth : 8 bits
Scan type : Progressive
Bits/(Pixel*Frame) : 0.178
Stream size : 924 MiB (96%)
Default : Yes
Forced : No
Color range : Limited
Color primaries : BT.709
Transfer characteristics : BT.709
Matrix coefficients : BT.709

Audio
ID : 2
Format : E-AC-3
Format/Info : Enhanced Audio Coding 3
Format settings, Endianness : Big
Codec ID : A_EAC3
Duration : 26 min 14 s
Bit rate mode : Constant
Bit rate : 224 kb/s
Channel(s) : 2 channels
Channel positions : Front: L R
Sampling rate : 48.0 kHz
Frame rate : 187.500 FPS (256 SPF)
Compression mode : Lossy
Stream size : 42.0 MiB (4%)
Language : English
Service kind : Complete Main
Default : Yes
Forced : No

Text
ID : 3
Format : UTF-8
Codec ID : S_TEXT/UTF8
Codec ID/Info : UTF-8 Plain Text
Duration : 25 min 51 s
Bit rate : 95 b/s
Count of elements : 598
Stream size : 18.2 KiB (0%)
Title : SDH
Language : English
Default : No
Forced : No





Sesame Street S49E31


Sesame Street S49E31


Sesame Street S49E31


Sesame Street S49E31


Sesame Street S49E31

All episodes