Featured TV Shows


Star Trek: Picard S01E03

Posted By: Tavaz
1080p (FullHD) / BluRay Remux IMDb
Star Trek: Picard S01E03

Star Trek: Picard S01E03
BluRay Remux | MKV | 1920x1080 | English | H264 @ 29998 kbps | DTS | 42 min 46 s | 9.53 GiB
Subtitles: English


Set twenty years after the events of Star Trek Nemesis, we follow the now-retired Admiral Picard into the next chapter of his life.

Star.Trek.Picard.S01E03.The.End.is.the.Beginning.1080p.DTS-HD.MA.5.1.AVC.REMUX-FraMeSToR.part1.rar (5.0 GB)
Star.Trek.Picard.S01E03.The.End.is.the.Beginning.1080p.DTS-HD.MA.5.1.AVC.REMUX-FraMeSToR.part2.rar (4.6 GB)



General
Unique ID : 69299321110180077937241124622341188482 (0x34229052EA33B7FE2B53599DCC632B82)
Complete name : ./cbc011304b983042ab8044e3c56a22d6.mkv
Format : Matroska
Format version : Version 4 / Version 2
File size : 9.53 GiB
Duration : 42 min 46 s
Overall bit rate mode : Variable
Overall bit rate : 31.9 Mb/s
Movie name : Star Trek: Picard (S01E03) The End is the Beginning
Encoded date : UTC 2020-10-19 11:48:27
Writing application : mkvmerge v51.0.0 ('I Wish') 64-bit
Writing library : libebml v1.4.0 + libmatroska v1.6.2
IMDB : tt8806524
TMDB : tv/85949
TVDB : 364093

Video
ID : 1
Format : AVC
Format/Info : Advanced Video Codec
Format profile : High@L4.1
Format settings : CABAC / 4 Ref Frames
Format settings, CABAC : Yes
Format settings, RefFrames : 4 frames
Codec ID : V_MPEG4/ISO/AVC
Duration : 42 min 46 s
Bit rate mode : Variable
Bit rate : 30.0 Mb/s
Maximum bit rate : 38.0 Mb/s
Width : 1 920 pixels
Height : 1 080 pixels
Display aspect ratio : 16:9
Frame rate mode : Constant
Frame rate : 23.976 (24000/1001) FPS
Standard : NTSC
Color space : YUV
Chroma subsampling : 4:2:0
Bit depth : 8 bits
Scan type : Progressive
Bits/(Pixel*Frame) : 0.603
Stream size : 8.96 GiB (94%)
Default : Yes
Forced : No
Color range : Limited
Color primaries : BT.709
Transfer characteristics : BT.709
Matrix coefficients : BT.709

Audio
ID : 2
Format : DTS
Format/Info : Digital Theater Systems
Format profile : MA / Core
Mode : 16
Format settings, Endianness : Big
Codec ID : A_DTS
Duration : 42 min 46 s
Bit rate mode : Variable / Constant
Bit rate : 1 864 kb/s / 1 509 kb/s
Channel(s) : 6 channels
Channel positions : Front: L C R, Side: L R, LFE
Sampling rate : 48.0 kHz
Frame rate : 93.750 FPS (512 SPF)
Bit depth : 16 bits
Compression mode : Lossless / Lossy
Stream size : 570 MiB (6%)
Title : DTS-HD MA 5.1
Language : English
Default : Yes
Forced : No

Text
ID : 3
Format : PGS
Codec ID : S_HDMV/PGS
Codec ID/Info : Picture based subtitle format used on BDs/HD-DVDs
Duration : 41 min 21 s
Bit rate : 35.9 kb/s
Count of elements : 1190
Stream size : 10.6 MiB (0%)
Title : English (SDH)
Language : English
Default : No
Forced : No

Menu
00:00:00.000 : en:Chapter 1
00:07:55.350 : en:Chapter 2
00:16:28.279 : en:Chapter 3
00:26:02.019 : en:Chapter 4
00:34:52.841 : en:Chapter 5
00:41:43.793 : en:Chapter 6





Star Trek: Picard S01E03


Star Trek: Picard S01E03


Star Trek: Picard S01E03


Star Trek: Picard S01E03


Star Trek: Picard S01E03

All episodes