Featured TV Shows


Star Trek: Picard S01E06

Posted By: Tavaz
1080p (FullHD) / WEBRip IMDb
Star Trek: Picard S01E06

Star Trek: Picard S01E06
WEBRip | MKV | 1920x1080 | Français / English | H264 @ 8340 kbps | E-AC-3 @ 640 kbps | 54 min 4 s | 3.63 GiB
Subtitles: Français, English


Set twenty years after the events of Star Trek Nemesis, we follow the now-retired Admiral Picard into the next chapter of his life.

131727222cdc4abf9b517171daddeb22.mkv (3.6 GB)



General
Unique ID : 268894768954023279554743331664298302830 (0xCA4B3FAD8A4DD33A052B1861BE94DD6E)
Complete name : ./131727222cdc4abf9b517171daddeb22.mkv
Format : Matroska
Format version : Version 4 / Version 2
File size : 3.63 GiB
Duration : 54 min 4 s
Overall bit rate : 9 623 kb/s
Encoded date : UTC 2020-02-27 23:06:00
Writing application : mkvmerge v43.0.0 ('The Quartermaster') 64-bit
Writing library : libebml v1.3.10 + libmatroska v1.5.2

Video
ID : 1
Format : AVC
Format/Info : Advanced Video Codec
Format profile : High@L4
Format settings : CABAC / 4 Ref Frames
Format settings, CABAC : Yes
Format settings, RefFrames : 4 frames
Codec ID : V_MPEG4/ISO/AVC
Duration : 54 min 4 s
Bit rate mode : Constant
Bit rate : 8 340 kb/s
Nominal bit rate : 10 000 kb/s
Width : 1 920 pixels
Height : 1 080 pixels
Display aspect ratio : 16:9
Frame rate mode : Constant
Frame rate : 23.976 (24000/1001) FPS
Color space : YUV
Chroma subsampling : 4:2:0
Bit depth : 8 bits
Scan type : Progressive
Bits/(Pixel*Frame) : 0.168
Stream size : 3.15 GiB (87%)
Default : Yes
Forced : No
Color range : Limited
Color primaries : BT.709
Transfer characteristics : BT.709
Matrix coefficients : BT.709

Audio #1
ID : 2
Format : E-AC-3
Format/Info : Enhanced Audio Coding 3
Format settings, Endianness : Big
Codec ID : A_EAC3
Duration : 54 min 4 s
Bit rate mode : Constant
Bit rate : 640 kb/s
Channel(s) : 6 channels
Channel positions : Front: L C R, Side: L R, LFE
Sampling rate : 48.0 kHz
Frame rate : 187.500 FPS (256 SPF)
Compression mode : Lossy
Stream size : 248 MiB (7%)
Title : French
Language : French
Service kind : Complete Main
Default : Yes
Forced : No

Audio #2
ID : 3
Format : E-AC-3
Format/Info : Enhanced Audio Coding 3
Format settings, Endianness : Big
Codec ID : A_EAC3
Duration : 54 min 4 s
Bit rate mode : Constant
Bit rate : 640 kb/s
Channel(s) : 6 channels
Channel positions : Front: L C R, Side: L R, LFE
Sampling rate : 48.0 kHz
Frame rate : 187.500 FPS (256 SPF)
Compression mode : Lossy
Stream size : 248 MiB (7%)
Title : English
Language : English
Service kind : Complete Main
Default : No
Forced : No

Text #1
ID : 4
Format : UTF-8
Codec ID : S_TEXT/UTF8
Codec ID/Info : UTF-8 Plain Text
Duration : 28 min 52 s
Bit rate : 0 b/s
Count of elements : 4
Stream size : 173 Bytes (0%)
Title : French (Forced)
Language : French
Default : Yes
Forced : Yes

Text #2
ID : 5
Format : UTF-8
Codec ID : S_TEXT/UTF8
Codec ID/Info : UTF-8 Plain Text
Duration : 52 min 59 s
Bit rate : 59 b/s
Count of elements : 681
Stream size : 23.2 KiB (0%)
Title : French
Language : French
Default : No
Forced : No

Text #3
ID : 6
Format : UTF-8
Codec ID : S_TEXT/UTF8
Codec ID/Info : UTF-8 Plain Text
Duration : 52 min 54 s
Bit rate : 58 b/s
Count of elements : 774
Stream size : 22.7 KiB (0%)
Title : English (SDH)
Language : English
Default : No
Forced : No

Menu
00:00:00.000 : en:1. Amazon Original
00:00:06.000 : en:2. Previously On
00:00:59.000 : en:3. A reoccurring dream
00:04:33.000 : en:4. The history of the Borg Cube
00:08:49.000 : en:5. Opening Credits
00:10:28.000 : en:6. A lapse in judgement
00:13:32.000 : en:7. The power of dreams
00:17:04.000 : en:8. A plan to get into The Artifact
00:21:57.000 : en:9. Calls to Soji's mother
00:23:04.000 : en:10. Raffi talks about her son
00:24:51.000 : en:11. A call to Soji's mom
00:25:49.000 : en:12. Picard must go alone
00:27:28.000 : en:13. 37 months
00:29:32.000 : en:14. Facing his past
00:31:57.000 : en:15. Inquiries about Soji
00:33:58.000 : en:16. Narek offers a solution
00:35:37.000 : en:17. Giving hope to Borgs
00:37:53.000 : en:18. Vulnerability
00:41:09.000 : en:19. Exploring Soji's dream
00:48:24.000 : en:20. Escaping the cube
00:53:06.000 : en:21. End Credits





Star Trek: Picard S01E06


Star Trek: Picard S01E06


Star Trek: Picard S01E06


Star Trek: Picard S01E06


Star Trek: Picard S01E06

All episodes