Featured TV Shows


Star Wars: The Clone Wars S07E11

Posted By: Tavaz
1080p (FullHD) / WEBRip IMDb
Star Wars: The Clone Wars S07E11

Star Wars: The Clone Wars S07E11
WEBRip | MKV | 1920x1080 | English | H264 @ 8464 kbps | E-AC-3 @ 256 kbps | 24 min 12 s | 1.47 GiB
Subtitles: Français, Deutsch, Suomi, Español, Polski, Italiano, Nederlands, Svenska, Dansk, English, Português
Genre: Animation


Yoda, Obi-Wan Kenobi, Anakin Skywalker, Mace Windu and other Jedi Knights lead the Grand Army of the Republic against the droid army of the Separatists.

159917c9dcaa4041ab14a3f15a5ddf19.mkv (1.5 GB)



General
Unique ID : 270392703116927475767143159077928677554 (0xCB6BBD88BC51065DFCB6195BB8CBB0B2)
Complete name : ./159917c9dcaa4041ab14a3f15a5ddf19.mkv
Format : Matroska
Format version : Version 4 / Version 2
File size : 1.47 GiB
Duration : 24 min 12 s
Overall bit rate mode : Variable
Overall bit rate : 8 723 kb/s
Encoded date : UTC 2020-05-01 09:13:07
Writing application : mkvmerge v44.0.0 ('Domino') 64-bit
Writing library : libebml v1.3.10 + libmatroska v1.5.2

Video
ID : 1
Format : AVC
Format/Info : Advanced Video Codec
Format profile : High@L4
Format settings : CABAC / 4 Ref Frames
Format settings, CABAC : Yes
Format settings, RefFrames : 4 frames
Codec ID : V_MPEG4/ISO/AVC
Duration : 24 min 12 s
Bit rate mode : Variable
Bit rate : 8 464 kb/s
Maximum bit rate : 12.7 Mb/s
Width : 1 920 pixels
Height : 1 080 pixels
Display aspect ratio : 16:9
Frame rate mode : Constant
Frame rate : 23.976 (24000/1001) FPS
Color space : YUV
Chroma subsampling : 4:2:0
Bit depth : 8 bits
Scan type : Progressive
Bits/(Pixel*Frame) : 0.170
Stream size : 1.43 GiB (97%)
Default : Yes
Forced : No
Color range : Limited
Color primaries : BT.709
Transfer characteristics : BT.709
Matrix coefficients : BT.709

Audio
ID : 2
Format : E-AC-3
Format/Info : Enhanced Audio Coding 3
Format settings, Endianness : Big
Codec ID : A_EAC3
Duration : 24 min 12 s
Bit rate mode : Constant
Bit rate : 256 kb/s
Channel(s) : 6 channels
Channel positions : Front: L C R, Side: L R, LFE
Sampling rate : 48.0 kHz
Frame rate : 187.500 FPS (256 SPF)
Compression mode : Lossy
Stream size : 44.3 MiB (3%)
Title : English
Language : English
Service kind : Complete Main
Default : Yes
Forced : No

Text #1
ID : 3
Format : UTF-8
Codec ID : S_TEXT/UTF8
Codec ID/Info : UTF-8 Plain Text
Duration : 22 min 35 s
Bit rate : 41 b/s
Count of elements : 187
Stream size : 6.91 KiB (0%)
Title : English
Language : English
Default : No
Forced : No

Text #2
ID : 4
Format : UTF-8
Codec ID : S_TEXT/UTF8
Codec ID/Info : UTF-8 Plain Text
Duration : 23 min 44 s
Bit rate : 38 b/s
Count of elements : 189
Stream size : 6.66 KiB (0%)
Title : Danish
Language : Danish
Default : No
Forced : No

Text #3
ID : 5
Format : UTF-8
Codec ID : S_TEXT/UTF8
Codec ID/Info : UTF-8 Plain Text
Duration : 23 min 44 s
Bit rate : 37 b/s
Count of elements : 182
Stream size : 6.58 KiB (0%)
Title : Dutch
Language : Dutch
Default : No
Forced : No

Text #4
ID : 6
Format : UTF-8
Codec ID : S_TEXT/UTF8
Codec ID/Info : UTF-8 Plain Text
Duration : 23 min 44 s
Bit rate : 36 b/s
Count of elements : 189
Stream size : 6.33 KiB (0%)
Title : Finnish
Language : Finnish
Default : No
Forced : No

Text #5
ID : 7
Format : UTF-8
Codec ID : S_TEXT/UTF8
Codec ID/Info : UTF-8 Plain Text
Duration : 23 min 44 s
Bit rate : 40 b/s
Count of elements : 189
Stream size : 7.06 KiB (0%)
Title : French
Language : French
Default : No
Forced : No

Text #6
ID : 8
Format : UTF-8
Codec ID : S_TEXT/UTF8
Codec ID/Info : UTF-8 Plain Text
Duration : 23 min 44 s
Bit rate : 40 b/s
Count of elements : 185
Stream size : 6.98 KiB (0%)
Title : German
Language : German
Default : No
Forced : No

Text #7
ID : 9
Format : UTF-8
Codec ID : S_TEXT/UTF8
Codec ID/Info : UTF-8 Plain Text
Duration : 23 min 44 s
Bit rate : 40 b/s
Count of elements : 189
Stream size : 7.04 KiB (0%)
Title : Italian
Language : Italian
Default : No
Forced : No

Text #8
ID : 10
Format : UTF-8
Codec ID : S_TEXT/UTF8
Codec ID/Info : UTF-8 Plain Text
Duration : 23 min 44 s
Bit rate : 37 b/s
Count of elements : 189
Stream size : 6.58 KiB (0%)
Title : Norwegian
Language : Norwegian
Default : No
Forced : No

Text #9
ID : 11
Format : UTF-8
Codec ID : S_TEXT/UTF8
Codec ID/Info : UTF-8 Plain Text
Duration : 23 min 56 s
Bit rate : 38 b/s
Count of elements : 189
Stream size : 6.77 KiB (0%)
Title : Polish
Language : Polish
Default : No
Forced : No

Text #10
ID : 12
Format : UTF-8
Codec ID : S_TEXT/UTF8
Codec ID/Info : UTF-8 Plain Text
Duration : 23 min 44 s
Bit rate : 40 b/s
Count of elements : 189
Stream size : 6.98 KiB (0%)
Title : Portuguese
Language : Portuguese
Default : No
Forced : No

Text #11
ID : 13
Format : UTF-8
Codec ID : S_TEXT/UTF8
Codec ID/Info : UTF-8 Plain Text
Duration : 23 min 44 s
Bit rate : 39 b/s
Count of elements : 189
Stream size : 6.81 KiB (0%)
Title : Brazilian Portuguese
Language : Portuguese
Default : No
Forced : No

Text #12
ID : 14
Format : UTF-8
Codec ID : S_TEXT/UTF8
Codec ID/Info : UTF-8 Plain Text
Duration : 23 min 56 s
Bit rate : 37 b/s
Count of elements : 190
Stream size : 6.49 KiB (0%)
Title : Latin America Spanish
Language : Spanish
Default : No
Forced : No

Text #13
ID : 15
Format : UTF-8
Codec ID : S_TEXT/UTF8
Codec ID/Info : UTF-8 Plain Text
Duration : 23 min 44 s
Bit rate : 39 b/s
Count of elements : 184
Stream size : 6.90 KiB (0%)
Title : European Spanish
Language : Spanish
Default : No
Forced : No

Text #14
ID : 16
Format : UTF-8
Codec ID : S_TEXT/UTF8
Codec ID/Info : UTF-8 Plain Text
Duration : 23 min 44 s
Bit rate : 38 b/s
Count of elements : 189
Stream size : 6.77 KiB (0%)
Title : Swedish
Language : Swedish
Default : No
Forced : No





Star Wars: The Clone Wars S07E11


Star Wars: The Clone Wars S07E11


Star Wars: The Clone Wars S07E11


Star Wars: The Clone Wars S07E11


Star Wars: The Clone Wars S07E11

All episodes