Featured TV Shows


Suits S07E01

Posted By: Tavaz
SD / BDRip IMDb
Suits S07E01

Suits S07E01
WEB-DL | MKV | 720x404 | German / English | H264 @ 809 kbps | AAC @ 87 kbps | 55 min 57 s | 395 MiB
Genre: Drama

Harvey Specter einer der Top-Anwälte Manhattans, engagiert für seine renommierte Kanzlei den brillanten, aber etwas unmotivierten College-Abgänger Mike Ross . Dabei müssen beide verheimlichen, dass Mike eigentlich noch gar nicht als Anwalt arbeiten darf …

Suits.S07E01.German.DL.AC3.BDRip.x264-Jane.mkv (278.5 MB)
Suits.S07E13.German.DL.AC3.BDRip.x264-Jane.mkv (258.9 MB)
Suits.S07E03.German.DL.AC3.BDRip.x264-Jane.mkv (254.8 MB)
Suits.S07E08.German.DL.AC3.BDRip.x264-Jane.mkv (275.8 MB)
Suits.S07E02.German.DL.AC3.BDRip.x264-Jane.mkv (249.7 MB)
Suits.S07E16.German.DL.AC3.BDRip.x264-Jane.mkv (394.9 MB)
Suits.S07E11.German.DL.AC3.BDRip.x264-Jane.mkv (263.5 MB)
Suits.S07E15.German.DL.AC3.BDRip.x264-Jane.mkv (253.2 MB)
Suits.S07E09.German.DL.AC3.BDRip.x264-Jane.mkv (251.9 MB)
Suits.S07E06.German.DL.AC3.BDRip.x264-Jane.mkv (245.5 MB)
Suits.S07E10.German.DL.AC3.BDRip.x264-Jane.mkv (274.7 MB)
Suits.S07E14.German.DL.AC3.BDRip.x264-Jane.mkv (286.9 MB)
Suits.S07E12.German.DL.AC3.BDRip.x264-Jane.mkv (286.5 MB)
Suits.S07E05.German.DL.AC3.BDRip.x264-Jane.mkv (250.0 MB)
Suits.S07E07.German.DL.AC3.BDRip.x264-Jane.mkv (257.0 MB)
Suits.S07E04.German.DL.AC3.BDRip.x264-Jane.mkv (269.3 MB)



General
Unique ID : 245939622813188024254224431675113701465 (0xB9063F97B6C97307BCB2DF4CD7B78059)
Complete name : ./94y4dOIoJ8arnGRKUL4t/Suits.S07E16.German.DL.AC3.BDRip.x264-Jane.mkv
Format : Matroska
Format version : Version 4 / Version 2
File size : 395 MiB
Duration : 55 min 57 s
Overall bit rate : 987 kb/s
Encoded date : UTC 2018-12-20 07:43:22
Writing application : mkvmerge v15.0.0 ('Duel with the Devil') 64-bit
Writing library : libebml v1.3.5 + libmatroska v1.4.5

Video
ID : 1
Format : AVC
Format/Info : Advanced Video Codec
Format profile : High@L4.1
Format settings : CABAC / 9 Ref Frames
Format settings, CABAC : Yes
Format settings, RefFrames : 9 frames
Codec ID : V_MPEG4/ISO/AVC
Duration : 55 min 57 s
Bit rate : 810 kb/s
Width : 720 pixels
Height : 404 pixels
Display aspect ratio : 16:9
Frame rate mode : Constant
Frame rate : 23.976 (24000/1001) FPS
Color space : YUV
Chroma subsampling : 4:2:0
Bit depth : 8 bits
Scan type : Progressive
Bits/(Pixel*Frame) : 0.116
Stream size : 324 MiB (82%)
Writing library : x264 core 152 r2851 ba24899
Encoding settings : cabac=1 / ref=9 / deblock=1:1:-3 / analyse=0x3:0x133 / me=umh / subme=10 / psy=1 / psy_rd=1.00:0.00 / mixed_ref=1 / me_range=32 / chroma_me=1 / trellis=2 / 8x8dct=1 / cqm=0 / deadzone=21,11 / fast_pskip=1 / chroma_qp_offset=-4 / threads=8 / lookahead_threads=2 / sliced_threads=0 / nr=0 / decimate=1 / interlaced=0 / bluray_compat=0 / constrained_intra=0 / bframes=9 / b_pyramid=2 / b_adapt=2 / b_bias=0 / direct=3 / weightb=1 / open_gop=0 / weightp=2 / keyint=250 / keyint_min=23 / scenecut=40 / intra_refresh=0 / rc_lookahead=40 / rc=crf / mbtree=0 / crf=19.0 / qcomp=0.60 / qpmin=0 / qpmax=69 / qpstep=4 / vbv_maxrate=50000 / vbv_bufsize=65000 / crf_max=0.0 / nal_hrd=none / filler=0 / ip_ratio=1.40 / pb_ratio=1.30 / aq=3:0.80
Default : Yes
Forced : No

Audio #1
ID : 2
Format : AAC
Format/Info : Advanced Audio Codec
Format profile : LC
Codec ID : A_AAC-2
Duration : 55 min 57 s
Bit rate : 87.8 kb/s
Channel(s) : 2 channels
Channel positions : Front: L R
Sampling rate : 48.0 kHz
Frame rate : 46.875 FPS (1024 SPF)
Compression mode : Lossy
Delay relative to video : 9 ms
Stream size : 35.1 MiB (9%)
Title : Deutsch AAC 2.0
Language : German
Default : Yes
Forced : No

Audio #2
ID : 3
Format : AAC
Format/Info : Advanced Audio Codec
Format profile : LC
Codec ID : A_AAC-2
Duration : 55 min 57 s
Bit rate : 86.0 kb/s
Channel(s) : 2 channels
Channel positions : Front: L R
Sampling rate : 48.0 kHz
Frame rate : 46.875 FPS (1024 SPF)
Compression mode : Lossy
Delay relative to video : 9 ms
Stream size : 34.4 MiB (9%)
Title : Englisch AAC 2.0
Language : English
Default : No
Forced : No

Menu
00:00:00.000 : en:00:00:00.000
00:06:58.501 : en:00:06:58.501
00:19:28.458 : en:00:19:28.458
00:32:02.503 : en:00:32:02.503





Suits S07E01


Suits S07E01


Suits S07E01


Suits S07E01


Suits S07E01

All episodes