Featured TV Shows


Supergirl S05E09

Posted By: Tavaz
1080p (FullHD) / WEBRip IMDb
Supergirl S05E09

Supergirl S05E09
WEBRip | MKV | 1920x1080 | English | H264 @ 8000 kbps | AAC @ 125 kbps | 42 min 0 s | 2.36 GiB
Subtitles: English
Genre: Action, Adventure, Drama, Science Fiction


Twenty-four-year-old Kara Zor-El, who was taken in by the Danvers family when she was 13 after being sent away from Krypton, must learn to embrace her powers after previously hiding them. The Danvers teach her to be careful with her powers, until she has to reveal them during an unexpected disaster, setting her on her journey of heroism.

a493b0775c1b4800b197c96701463923.mkv (2.4 GB)



General
Unique ID : 24207941252720627266191780393642745814 (0x123647A733D9281661386E791DBDDFD6)
Complete name : ./a493b0775c1b4800b197c96701463923.mkv
Format : Matroska
Format version : Version 4 / Version 2
File size : 2.36 GiB
Duration : 42 min 0 s
Overall bit rate : 8 029 kb/s
Encoded date : UTC 2019-12-09 06:03:32
Writing application : mkvmerge v40.0.0 ('Old Town Road + Pony') 64-bit
Writing library : libebml v1.3.9 + libmatroska v1.5.2

Video
ID : 1
Format : AVC
Format/Info : Advanced Video Codec
Format profile : High@L4
Format settings : CABAC / 3 Ref Frames
Format settings, CABAC : Yes
Format settings, RefFrames : 3 frames
Codec ID : V_MPEG4/ISO/AVC
Duration : 42 min 0 s
Bit rate mode : Constant
Bit rate : 8 000 kb/s
Width : 1 920 pixels
Height : 1 080 pixels
Display aspect ratio : 16:9
Frame rate mode : Constant
Frame rate : 23.976 (24000/1001) FPS
Color space : YUV
Chroma subsampling : 4:2:0
Bit depth : 8 bits
Scan type : Progressive
Bits/(Pixel*Frame) : 0.161
Stream size : 2.32 GiB (98%)
Language : English
Default : Yes
Forced : No

Audio
ID : 2
Format : AAC
Format/Info : Advanced Audio Codec
Format profile : LC
Codec ID : A_AAC-2
Duration : 42 min 0 s
Bit rate : 126 kb/s
Channel(s) : 2 channels
Channel positions : Front: L R
Sampling rate : 44.1 kHz
Frame rate : 43.066 FPS (1024 SPF)
Compression mode : Lossy
Stream size : 37.7 MiB (2%)
Language : English
Default : Yes
Forced : No

Text
ID : 3
Format : UTF-8
Codec ID : S_TEXT/UTF8
Codec ID/Info : UTF-8 Plain Text
Duration : 41 min 4 s
Bit rate : 279 b/s
Count of elements : 738
Stream size : 84.0 KiB (0%)
Title : English
Language : English
Default : No
Forced : No





Supergirl S05E09


Supergirl S05E09


Supergirl S05E09


Supergirl S05E09


Supergirl S05E09

All episodes