Featured TV Shows


Superstore S04E19

Posted By: Tavaz
1080p (FullHD) / WEB-DL IMDb
Superstore S04E19

Superstore S04E19
WEB-DL | MKV | 1920x1080 | Italian / English | H264 @ 10000 kbps | AC-3 @ 192 kbps | 20 min 34 s | 1.55 GiB
Genre: Comedy


A hilarious workplace comedy about a unique family of employees at a super-sized mega store. From the bright-eyed newbies and the seen-it-all veterans to the clueless summer hires and the in-it-for-life managers, together they hilariously tackle the day-to-day grind of rabid bargain hunters, riot-causing sales and nap-worthy training sessions.

Superstore.4x19.A.Colpi.Di.Scanner.ITA-ENG.1080p.WEBMux.x264-NovaRip.mkv (1.6 GB)



General
Unique ID : 266132781991940612503492893307815402243 (0xC8374F34FA76CEFD27FA739EBC7D1B03)
Complete name : ./Superstore.4x19.A.Colpi.Di.Scanner.ITA-ENG.1080p.WEBMux.x264-NovaRip.mkv
Format : Matroska
Format version : Version 2
File size : 1.55 GiB
Duration : 20 min 34 s
Overall bit rate mode : Constant
Overall bit rate : 10.8 Mb/s
Encoded date : UTC 2019-09-08 06:24:34
Writing application : mkvmerge v8.5.2 ('Crosses') 64bit
Writing library : libebml v1.3.3 + libmatroska v1.4.4

Video
ID : 1
Format : AVC
Format/Info : Advanced Video Codec
Format profile : High@L4
Format settings : CABAC / 4 Ref Frames
Format settings, CABAC : Yes
Format settings, RefFrames : 4 frames
Codec ID : V_MPEG4/ISO/AVC
Duration : 20 min 34 s
Bit rate mode : Constant
Bit rate : 10 000 kb/s
Width : 1 920 pixels
Height : 1 080 pixels
Display aspect ratio : 16:9
Frame rate mode : Constant
Frame rate : 25.000 FPS
Original frame rate : 23.976 (24000/1001) FPS
Color space : YUV
Chroma subsampling : 4:2:0
Bit depth : 8 bits
Scan type : Progressive
Bits/(Pixel*Frame) : 0.193
Stream size : 1.47 GiB (95%)
Language : English
Default : Yes
Forced : Yes
Color range : Limited
Color primaries : BT.709
Transfer characteristics : BT.709
Matrix coefficients : BT.709

Audio #1
ID : 2
Format : AC-3
Format/Info : Audio Coding 3
Format settings, Endianness : Big
Codec ID : A_AC3
Duration : 20 min 34 s
Bit rate mode : Constant
Bit rate : 192 kb/s
Channel(s) : 2 channels
Channel positions : Front: L R
Sampling rate : 48.0 kHz
Frame rate : 31.250 FPS (1536 SPF)
Bit depth : 16 bits
Compression mode : Lossy
Stream size : 28.3 MiB (2%)
Title : ITA
Language : Italian
Service kind : Complete Main
Default : Yes
Forced : Yes

Audio #2
ID : 3
Format : AC-3
Format/Info : Audio Coding 3
Format settings, Endianness : Big
Codec ID : A_AC3
Duration : 20 min 34 s
Bit rate mode : Constant
Bit rate : 384 kb/s
Channel(s) : 6 channels
Channel positions : Front: L C R, Side: L R, LFE
Sampling rate : 48.0 kHz
Frame rate : 31.250 FPS (1536 SPF)
Bit depth : 16 bits
Compression mode : Lossy
Stream size : 56.5 MiB (4%)
Title : ENG
Language : English
Service kind : Complete Main
Default : No
Forced : No





Superstore S04E19


Superstore S04E19


Superstore S04E19


Superstore S04E19


Superstore S04E19

All episodes