Featured TV Shows


Les 100 S06E01

Posted By: Tavaz
Les 100 S06E01

Les 100 S06E01
MKV | 1280x720 | French | H264 @ 6000 kbps | AC-3 @ 192 kbps | 40 min 38 s | 1.80 GiB
Subtitles: French
Genre: Drame


Après une apocalypse causée par l'Homme lors d'une troisième Guerre Mondiale, les 318 survivants recensés se réfugient dans des stations spatiales et parviennent à y vivre et à se reproduire, atteignant le nombre de 4000. Mais 97 ans plus tard, le vaisseau mère, The Ark, est en piteux état. Une centaine de jeunes délinquants emprisonnés au fil des années pour des crimes ou des trahisons sont choisis comme cobayes par les autorités pour redescendre sur Terre et tester les chances de survie. Dès leur arrivée, ils découvrent un nouveau monde dangereux mais fascinant…

The.100.S06E01.FRENCH.720p.AMZN.WEB-DL.H264-FRATERNiTY.mkv (1.8 GB)
The.100.S06E06.FRENCH.720p.HDTV.x264-SH0W.mkv (815.7 MB)
The.100.S06E02.FRENCH.720p.AMZN.WEB-DL.H264-FRATERNiTY.mkv (1.8 GB)
The.100.S06E03.FRENCH.720p.AMZN.WEB-DL.H264-FRATERNiTY.mkv (1.8 GB)
The.100.S06E05.FRENCH.720p.HDTV.x264-SH0W.mkv (872.7 MB)
The.100.S06E04.FRENCH.720p.AMZN.WEB-DL.H264-FRATERNiTY.mkv (1.8 GB)



General
Unique ID : 327112094225116793825002315941666972767 (0xF6177F6C258BD0F120053C439B45645F)
Complete name : ./The.100.S06E01.FRENCH.720p.AMZN.WEB-DL.H264-FRATERNiTY.mkv
Format : Matroska
Format version : Version 4 / Version 2
File size : 1.80 GiB
Duration : 40 min 38 s
Overall bit rate : 6 335 kb/s
Movie name : The.100.S06E01.FRENCH.720p.AMZN.WEB-DL.H264-FRATERNiTY
Encoded date : UTC 2019-09-03 21:17:42
Writing application : mkvmerge v37.0.0 ('Leave It') 64-bit
Writing library : libebml v1.3.9 + libmatroska v1.5.2

Video
ID : 1
Format : AVC
Format/Info : Advanced Video Codec
Format profile : High@L3.1
Format settings : CABAC / 4 Ref Frames
Format settings, CABAC : Yes
Format settings, RefFrames : 4 frames
Codec ID : V_MPEG4/ISO/AVC
Duration : 40 min 38 s
Bit rate mode : Constant
Bit rate : 6 000 kb/s
Width : 1 280 pixels
Height : 720 pixels
Display aspect ratio : 16:9
Frame rate mode : Constant
Frame rate : 25.000 FPS
Original frame rate : 23.976 (24000/1001) FPS
Color space : YUV
Chroma subsampling : 4:2:0
Bit depth : 8 bits
Scan type : Progressive
Bits/(Pixel*Frame) : 0.260
Stream size : 1.74 GiB (97%)
Title : The.100.S06E01.FRENCH.720p.AMZN.WEB-DL.H264-FRATERNiTY
Language : French
Default : Yes
Forced : No
Color range : Limited
Color primaries : BT.709
Transfer characteristics : BT.709
Matrix coefficients : BT.709

Audio
ID : 2
Format : AC-3
Format/Info : Audio Coding 3
Format settings, Endianness : Big
Codec ID : A_AC3
Duration : 40 min 38 s
Bit rate mode : Constant
Bit rate : 192 kb/s
Channel(s) : 2 channels
Channel positions : Front: L R
Sampling rate : 48.0 kHz
Frame rate : 31.250 FPS (1536 SPF)
Bit depth : 16 bits
Compression mode : Lossy
Stream size : 55.8 MiB (3%)
Title : The.100.S06E01.FRENCH.720p.AMZN.WEB-DL.H264-FRATERNiTY
Language : French
Service kind : Complete Main
Default : Yes
Forced : No

Text
ID : 3
Format : UTF-8
Codec ID : S_TEXT/UTF8
Codec ID/Info : UTF-8 Plain Text
Duration : 3 min 33 s
Bit rate : 11 b/s
Count of elements : 7
Stream size : 307 Bytes (0%)
Title : French [Forced]
Language : French
Default : Yes
Forced : Yes





Les 100 S06E01


Les 100 S06E01


Les 100 S06E01


Les 100 S06E01


Les 100 S06E01

All episodes