Featured TV Shows


The Spanish Princess S01E03

Posted By: Tavaz
720p (HD) / WEB-DL IMDb
The Spanish Princess S01E03

The Spanish Princess S01E03
WEB-DL | MKV | 1280x720 | English | H264 @ 4187 kbps | E-AC-3 @ 640 kbps | 54 min 58 s | 1.85 GiB
Subtitles: English
Genre: Drama


La preciosa princesa española, Catalina de Aragón, viaja por el linaje real de Inglaterra con un ojo puesto en el trono.

The.Spanish.Princess.S01E03.An.Audacious.Plan.720p.AMZN.WEB-DL.DDP5.1.H.264-NTb.mkv (1.9 GB)



General
Unique ID : 173746153649611929065027690847571697138 (0x82B64AC0BF4A75DDE6E88EDBEB0E5DF2)
Complete name : ./The.Spanish.Princess.S01E03.An.Audacious.Plan.720p.AMZN.WEB-DL.DDP5.1.H.264-NTb.mkv
Format : Matroska
Format version : Version 4 / Version 2
File size : 1.85 GiB
Duration : 54 min 58 s
Overall bit rate : 4 829 kb/s
Encoded date : UTC 2019-05-19 19:38:50
Writing application : mkvmerge v30.1.0 ('Forever And More') 64-bit
Writing library : libebml v1.3.6 + libmatroska v1.4.9

Video
ID : 1
Format : AVC
Format/Info : Advanced Video Codec
Format profile : High@L3.1
Format settings : CABAC / 4 Ref Frames
Format settings, CABAC : Yes
Format settings, RefFrames : 4 frames
Codec ID : V_MPEG4/ISO/AVC
Duration : 54 min 58 s
Bit rate mode : Constant
Bit rate : 4 187 kb/s
Nominal bit rate : 6 000 kb/s
Width : 1 280 pixels
Height : 720 pixels
Display aspect ratio : 16:9
Frame rate mode : Constant
Frame rate : 23.976 (24000/1001) FPS
Color space : YUV
Chroma subsampling : 4:2:0
Bit depth : 8 bits
Scan type : Progressive
Bits/(Pixel*Frame) : 0.189
Stream size : 1.61 GiB (87%)
Default : Yes
Forced : No
Color range : Limited
Color primaries : BT.709
Transfer characteristics : BT.709
Matrix coefficients : BT.709

Audio
ID : 2
Format : E-AC-3
Format/Info : Enhanced Audio Coding 3
Format settings, Endianness : Big
Codec ID : A_EAC3
Duration : 54 min 58 s
Bit rate mode : Constant
Bit rate : 640 kb/s
Channel(s) : 6 channels
Channel positions : Front: L C R, Side: L R, LFE
Sampling rate : 48.0 kHz
Frame rate : 187.500 FPS (256 SPF)
Compression mode : Lossy
Stream size : 252 MiB (13%)
Language : English
Service kind : Complete Main
Default : Yes
Forced : No

Text
ID : 3
Format : UTF-8
Codec ID : S_TEXT/UTF8
Codec ID/Info : UTF-8 Plain Text
Duration : 53 min 15 s
Bit rate : 59 b/s
Count of elements : 843
Stream size : 23.1 KiB (0%)
Title : SDH
Language : English
Default : No
Forced : No





The Spanish Princess S01E03


The Spanish Princess S01E03


The Spanish Princess S01E03


The Spanish Princess S01E03


The Spanish Princess S01E03

All episodes