Featured TV Shows


The Spanish Princess S01E05

Posted By: Tavaz
720p (HD) / WEB-DL IMDb
The Spanish Princess S01E05

The Spanish Princess S01E05
WEB-DL | MKV | 1280x720 | English | H264 @ 3934 kbps | E-AC-3 @ 640 kbps | 57 min 24 s | 1.83 GiB
Subtitles: English
Genre: Drama


La preciosa princesa española, Catalina de Aragón, viaja por el linaje real de Inglaterra con un ojo puesto en el trono.

The.Spanish.Princess.S01E05.Heart.Versus.Duty.720p.AMZN.WEB-DL.DDP5.1.H.264-NTb.mkv (1.8 GB)



General
Unique ID : 23011407081846249322869274794889664712 (0x114FD5F6BC64A8D8D8425C194D0158C8)
Complete name : ./The.Spanish.Princess.S01E05.Heart.Versus.Duty.720p.AMZN.WEB-DL.DDP5.1.H.264-NTb.mkv
Format : Matroska
Format version : Version 4 / Version 2
File size : 1.83 GiB
Duration : 57 min 24 s
Overall bit rate : 4 576 kb/s
Encoded date : UTC 2019-06-02 14:58:50
Writing application : mkvmerge v30.1.0 ('Forever And More') 64-bit
Writing library : libebml v1.3.6 + libmatroska v1.4.9

Video
ID : 1
Format : AVC
Format/Info : Advanced Video Codec
Format profile : High@L3.1
Format settings : CABAC / 4 Ref Frames
Format settings, CABAC : Yes
Format settings, RefFrames : 4 frames
Codec ID : V_MPEG4/ISO/AVC
Duration : 57 min 24 s
Bit rate mode : Constant
Bit rate : 3 934 kb/s
Nominal bit rate : 6 000 kb/s
Width : 1 280 pixels
Height : 720 pixels
Display aspect ratio : 16:9
Frame rate mode : Constant
Frame rate : 23.976 (24000/1001) FPS
Color space : YUV
Chroma subsampling : 4:2:0
Bit depth : 8 bits
Scan type : Progressive
Bits/(Pixel*Frame) : 0.178
Stream size : 1.58 GiB (86%)
Default : Yes
Forced : No
Color range : Limited
Color primaries : BT.709
Transfer characteristics : BT.709
Matrix coefficients : BT.709

Audio
ID : 2
Format : E-AC-3
Format/Info : Enhanced Audio Coding 3
Format settings, Endianness : Big
Codec ID : A_EAC3
Duration : 57 min 24 s
Bit rate mode : Constant
Bit rate : 640 kb/s
Channel(s) : 6 channels
Channel positions : Front: L C R, Side: L R, LFE
Sampling rate : 48.0 kHz
Frame rate : 187.500 FPS (256 SPF)
Compression mode : Lossy
Stream size : 263 MiB (14%)
Language : English
Service kind : Complete Main
Default : Yes
Forced : No

Text
ID : 3
Format : UTF-8
Codec ID : S_TEXT/UTF8
Codec ID/Info : UTF-8 Plain Text
Duration : 55 min 44 s
Bit rate : 61 b/s
Count of elements : 852
Stream size : 25.0 KiB (0%)
Title : SDH
Language : English
Default : No
Forced : No





The Spanish Princess S01E05


The Spanish Princess S01E05


The Spanish Princess S01E05


The Spanish Princess S01E05


The Spanish Princess S01E05

All episodes