Featured TV Shows


The Spanish Princess S01E07

Posted By: Tavaz
1080p (FullHD) / WEB-DL IMDb
The Spanish Princess S01E07

The Spanish Princess S01E07
WEB-DL | MKV | 1920x1080 | English | H264 @ 9224 kbps | E-AC-3 @ 640 kbps | 54 min 50 s | 3.78 GiB
Subtitles: English
Genre: Drama


La preciosa princesa española, Catalina de Aragón, viaja por el linaje real de Inglaterra con un ojo puesto en el trono.

The.Spanish.Princess.S01E07.All.Is.Lost.1080p.AMZN.WEB-DL.DDP5.1.H.264-NTb.mkv (3.8 GB)



General
Unique ID : 288284648034533910875840280776999764910 (0xD8E19A868EB7BF02D0715135AD3503AE)
Complete name : ./The.Spanish.Princess.S01E07.All.Is.Lost.1080p.AMZN.WEB-DL.DDP5.1.H.264-NTb.mkv
Format : Matroska
Format version : Version 4 / Version 2
File size : 3.78 GiB
Duration : 54 min 50 s
Overall bit rate : 9 866 kb/s
Encoded date : UTC 2019-06-16 13:59:24
Writing application : mkvmerge v30.1.0 ('Forever And More') 64-bit
Writing library : libebml v1.3.6 + libmatroska v1.4.9

Video
ID : 1
Format : AVC
Format/Info : Advanced Video Codec
Format profile : High@L4
Format settings : CABAC / 4 Ref Frames
Format settings, CABAC : Yes
Format settings, RefFrames : 4 frames
Codec ID : V_MPEG4/ISO/AVC
Duration : 54 min 50 s
Bit rate mode : Constant
Bit rate : 9 224 kb/s
Nominal bit rate : 10 000 kb/s
Width : 1 920 pixels
Height : 1 080 pixels
Display aspect ratio : 16:9
Frame rate mode : Constant
Frame rate : 23.976 (24000/1001) FPS
Color space : YUV
Chroma subsampling : 4:2:0
Bit depth : 8 bits
Scan type : Progressive
Bits/(Pixel*Frame) : 0.186
Stream size : 3.53 GiB (93%)
Default : Yes
Forced : No
Color range : Limited
Color primaries : BT.709
Transfer characteristics : BT.709
Matrix coefficients : BT.709

Audio
ID : 2
Format : E-AC-3
Format/Info : Enhanced Audio Coding 3
Format settings, Endianness : Big
Codec ID : A_EAC3
Duration : 54 min 50 s
Bit rate mode : Constant
Bit rate : 640 kb/s
Channel(s) : 6 channels
Channel positions : Front: L C R, Side: L R, LFE
Sampling rate : 48.0 kHz
Frame rate : 187.500 FPS (256 SPF)
Compression mode : Lossy
Stream size : 251 MiB (6%)
Language : English
Service kind : Complete Main
Default : Yes
Forced : No

Text
ID : 3
Format : UTF-8
Codec ID : S_TEXT/UTF8
Codec ID/Info : UTF-8 Plain Text
Duration : 53 min 10 s
Bit rate : 67 b/s
Count of elements : 901
Stream size : 26.4 KiB (0%)
Title : SDH
Language : English
Default : No
Forced : No





The Spanish Princess S01E07


The Spanish Princess S01E07


The Spanish Princess S01E07


The Spanish Princess S01E07


The Spanish Princess S01E07

All episodes